Saturday - Σάββατο, 17 April 2021, 19:01
Καλωσόρισες Guest | RSS

EZAccess Ελληνική Τηλεόραση

Κεντρική Σελίδα » 2010 » January - Ιανουάριος » 21 » Η ΠΟΛΥΚΑΤΟΙΚΙΑ S02E19 - Mega.H.polykatoikia.S02E19
Η ΠΟΛΥΚΑΤΟΙΚΙΑ S02E19 - Mega.H.polykatoikia.S02E19
Η ΠΟΛΥΚΑΤΟΙΚΙΑ S02E14 - Mega.H.polykatoikia.S02E14 CLGrTv

Η ΠΟΛΥΚΑΤΟΙΚΙΑ S02E19 - Mega.H.polykatoikia.S02E19

2ος κύκλος

Είναι όλοι εδώ: O Μανώλης o ωχαδερφιστής, o Αργύρης o απατεωνίσκος, o Τζίμης o φευγάτος,
η Βασιλική η αγαθοβιόλα, η Μαίρη η πικρόχολη, η Παναγιώτα η
φαρμακομύτα, ο Μάρκος ο κυκλοθυμικός, η Μπέττυ η ''άλλος Χρήστος μας
βρήκε'', ο Χρήστος ο λογικός, ο Θανάσης ο φαφλατάς, η Ελπίδα η
''Βοτανού'', η Ναταλί η κυνική, ο Πέτρος το πειραχτήρι, ο Αντρέας το
λαμόγιο, ο Γιώργος ο επιπόλαιος, ο Νίκος ο ντροπαλός, η Λίτσα η
''δικτάτωρ'', η Λουκία η δυναμική, ο Τάκης ο ανώριμος, η Ελένη η
αγανακτισμένη... Και ο παροξυσμός συνεχίζεται με νέους ένοικους στη
σειρά που κάνει την κόλαση του Δάντη να μοιάζει με παιδική χαρά!

Επεισόδιο: 75
Η Ελένη, χήρα πλέον, δεν δικαιούται τίποτα από την περιουσία του Θέμη.
Ωστόσο, ο γιος του, ο Μπίλι, είναι διατεθειμένος να της δώσει ένα σημαντικό ποσό, μέχρι που ο Μανώλης και η Τζόρτζια θα εμφανιστούν σε κουτσομπολίστικη εκπομπή και θα βγάλουν τα άπλυτα στη φόρα! Ο Μπίλι θυμωμένος θα αποσύρει την προσφορά... Ο Θανάσης εγκαθιστά ασύρματη σύνδεση 'Ιντερνετ. Ο Τζίμης κι ο Αργύρης μπαίνουν στον υπολογιστή του, ανακαλύπτουν το διαγώνισμα που θα βάλει στους μαθητές του και τους πουλάνε τις απαντήσεις! Οι μαθητές αριστεύουν, αλλά η διαρροή μαθαίνεται και ο Θανάσης υποβαθμίζεται σε υπεύθυνο της χορωδίας! Ο Τάκης έχει αρχίσει να κουράζεται με την 'Αννα, ώσπου εκείνη γίνεται το πρόσωπο της διαφημιστικής καμπάνιας της αεροπορικής εταιρίας! Ο Τάκης καμαρώνει. Ο Κωνσταντίνος χαρίζει στη Λουκία ένα σκυλάκι κι εκείνη παθαίνει τέτοιο κόλλημα, που υιοθετεί άλλα 4! Ο Μάρκος προσπαθεί να νοικιάσει ένα γραφείο για τον Χρήστο, αλλά ο ιδιοκτήτης αποδεικνύεται ομοφοβικός και τους διώχνει κακήν κακώς...

Η ΠΟΛΥΚΑΤΟΙΚΙΑ S02E19 - Mega.H.polykatoikia.S02E19

General
Complete name : Mega.H.polykatoikia.S02E19_EZAccess.at.ua.avi
Format : AVI
Format/Info : Audio Video Interleave
File size : 370 MiB
Duration : 45mn 10s
Overall bit rate : 1145 Kbps
Writing application : VirtualDubMod 1.5.4.1 (build 2178/release)
Writing library : VirtualDubMod build 2178/release

Video
ID : 0
Format : MPEG-4 Visual
Format profile : Simple@L3
Format settings, BVOP : Yes
Format settings, QPel : No
Format settings, GMC : No warppoints
Format settings, Matrix : Custom
Codec ID : XVID
Codec ID/Hint : XviD
Duration : 45mn 10s
Bit rate : 1009 Kbps
Width : 576 pixels
Height : 432 pixels
Display aspect ratio : 4:3
Frame rate : 25.000 fps
Resolution : 8 bits
Colorimetry : 4:2:0
Scan type : Progressive
Bits/(Pixel*Frame) : 0.162
Stream size : 326 MiB (88%)
Writing library : XviD 1.1.0 Beta2 (UTC 2005-04-04)

Audio
ID : 1
Format : MPEG Audio
Format version : Version 1
Format profile : Layer 3
Mode : Joint stereo
Format_Settings_ModeExtension : MS Stereo
Codec ID : 55
Codec ID/Hint : MP3
Duration : 45mn 10s
Bit rate mode : Constant
Bit rate : 128 Kbps
Channel(s) : 2 channels
Sampling rate : 48.0 KHz
Stream size : 41.4 MiB (11%)
Alignment : Aligned on interleaves
Interleave, duration : 80 ms (2.00 video frames)
Interleave, preload duration : 504 ms
Writing library : LAME3.97
Encoding settings : -m j -V 4 -q 2 -lowpass 17 -b 128


 Κατεβάστε εδώ το νέο επεισόδιο (19):

Κατηγορία: Greek TV (MEGA) |
Only registered users can add comments.
[ Registration | Login ]

Σύνδεση / Εγγραφή

Login:
Password:

Φιλικές Σελίδες

Αναζήτηση Σελίδας

Αναζήτηση Μέσω Google

EZ Archive