Thursday - Πέμπτη, 15 April 2021, 20:06
Καλωσόρισες Guest | RSS

EZAccess Ελληνική Τηλεόραση

Κεντρική Σελίδα » 2012 » November - Νοέμβριος » 24 » HAPPY FEET (2006) «ΜΕΤΑΓΛΩΤΤΙΣΜΕΝΟ ΣΤΑ ΕΛΛΗΝΙΚΑ»
HAPPY FEET (2006) «ΜΕΤΑΓΛΩΤΤΙΣΜΕΝΟ ΣΤΑ ΕΛΛΗΝΙΚΑ»


HAPPY FEET (2006) «ΜΕΤΑΓΛΩΤΤΙΣΜΕΝΟ ΣΤΑ ΕΛΛΗΝΙΚΑ»


Στην κοινωνία των Βασιλικών Πιγκουίνων το προσόν που μετράει περισσότερο από οποιοδήποτε άλλο είναι οι καλές φωνητικές χορδές. Και δε θα μπορούσε να είναι διαφορετικά, αφού η καλή φωνή και το τραγούδι είναι αυτά που χαρίζουν στους πιγκουίνους γοητεία και τους βοηθούν να βρουν το ταίρι τους. Τι συμβαίνει όμως όταν γεννιέται ένα πιγκουινάκι, το οποίο είναι εντελώς φάλτσο; Τι μπορεί να κάνει ο Μαμπλ, γιος του Έλβις και της Νόρμα Τζιν, όταν το πιο παράφωνο πλάσμα πρέπει να συμβιώσει με τις καλύτερες φωνές της κοινότητας; Μα να αναπτύξει ένα άλλο ταλέντο! Γι' αυτό και αποφασίζει να γίνει… ο καλύτερος χορευτής με κλακέτες!
Μια μελωδική αλλά και χορευτική ταινία, βραβευμένη με Όσκαρ καλύτερου κινουμένου σχεδίου, που θα ενθουσιάσει μικρούς και μεγάλους…

Σήμανση:     Κατάλληλο για όλους
Τύπος:     Κινούμενα Σχέδια
Σκηνοθεσία:    Τζορτζ Μίλερ, Γουόρεν Κόλμαν
Σενάριο:    Τζορτζ Μίλερ, Γουόρεν Κόλμαν
Ηθοποιοί:    "Δανείζουν" τις φωνές τους οι: Ελάιζα Γουντ, Μπρίτανι Μέρφι, Χιού Τζάκμαν, Νικόλ Κίντμαν, Ρόμπιν Γουίλιαμς




Format : AVI
Format/Info : Audio Video Interleave
File size : 1.28 GiB
Duration : 1h 44mn
Overall bit rate : 1 758 Kbps

Video
ID : 0
Format : MPEG-4 Visual
Format profile : Advanced Simple@L5
Format settings, BVOP : 2
Format settings, QPel : No
Format settings, GMC : No warppoints
Format settings, Matrix : Default (H.263)
Codec ID : XVID
Codec ID/Hint : XviD
Duration : 1h 44mn
Bit rate : 1 366 Kbps
Width : 720 pixels
Height : 304 pixels
Display aspect ratio : 2.35:1
Frame rate : 25.000 fps
Color space : YUV
Chroma subsampling : 4:2:0
Bit depth : 8 bits
Scan type : Progressive
Compression mode : Lossy
Bits/(Pixel*Frame) : 0.250
Stream size : 1 017 MiB (78%)
Writing library : XviD 1.2.1 (UTC 2008-12-04)

Audio
ID : 1
Format : AC-3
Format/Info : Audio Coding 3
Mode extension : CM (complete main)
Codec ID : 2000
Duration : 1h 44mn
Bit rate mode : Constant
Bit rate : 384 Kbps
Channel(s) : 6 channels
Channel positions : Front: L C R, Side: L R, LFE
Sampling rate : 48.0 KHz
Bit depth : 16 bits
Compression mode : Lossy
Stream size : 286 MiB (22%)
Alignment : Aligned on interleaves
Interleave, duration : 64 ms (1.60 video frames)
Interleave, preload duration : 192 ms

http://4.bp.blogspot.com/_7wsQzULWIwo/SwALMl0nnQI/AAAAAAAACLs/Hm8u1Jqo0YY/s400/download-orig.png

Podarakias.I.2006.avi

ή

Podarakias.I.2006.avi

Κατηγορία: ΑΛΛΑ ΚΑΝΑΛΙΑ (ΔΙΑΦΟΡΑ) |
Only registered users can add comments.
[ Registration | Login ]

Σύνδεση / Εγγραφή

Login:
Password:

Φιλικές Σελίδες

Αναζήτηση Σελίδας

Αναζήτηση Μέσω Google

EZ Archive