Tuesday - Τρίτη, 19 November 2019, 10:29
Καλωσόρισες Guest | RSS

EZAccess Ελληνική Τηλεόραση

Κεντρική Σελίδα » 2010 » January - Ιανουάριος » 13 » ΙΑΤΡΙΚΟ ΑΠΟΡΡΗΤΟ S01E06 - Ant1.Iatriko.aporrhto.S01E06
ΙΑΤΡΙΚΟ ΑΠΟΡΡΗΤΟ S01E06 - Ant1.Iatriko.aporrhto.S01E06
ΙΑΤΡΙΚΟ ΑΠΟΡΡΗΤΟ ANT1 http://ezaccess.at.ua/

ΙΑΤΡΙΚΟ ΑΠΟΡΡΗΤΟ S01E6 - Ant1.Iatriko.aporrhto.S01E06

Ο Γιώργος Κιµούλης, ο Παναγιώτης Μπουγιούρης, η Μάντυ Λάµπου, η Σοφία Παυλίδου, ο Γρηγόρης Σταµούλης και ο Σοφοκλής Πέππας πρωταγωνιστούν στη νέα σειρά του ΑΝΤ1: μια ομάδα γιατρών που έρχονται καθημερινά αντιμέτωποι με σοβαρά περιστατικά, απαιτητικές εγχειρίσεις και δύσκολες αποφάσεις.
Παράλληλα, έχουν και τις προσωπικές τους ζωές. Μοιράζονται τις ανθρώπινες αδυναμίες τους, τις φιλοδοξίες, τα όνειρα, τις αγωνίες για τη δουλειά και την προσωπική τους ζωή. Βιώνουν τις δικές τους χαρές και απογοητεύσεις, τους έρωτες τις φιλίες και τους ανταγωνισμούς τους.

Σε κάθε επεισόδιο οι γιατροί του ΙΑΤΡΙΚΟΥ ΑΠΟΡΡΗΤΟΥ έρχονται σε επαφή με νέους ασθενείς και συχνά εμπλέκονται συναισθηματικά μαζί τους. Μπροστά σε κάθε καινούργιο ανθρώπινο δράμα, παραμένουν πιστοί στον όρκο τους να σώζουν ανθρώπινες ζωές και να τηρούν το ιατρικό απόρρητο των ασθενών τους. Ένα ιατρικό απόρρητο που θα αποκαλύπτεται κάθε Τρίτη στις 10 το βράδυ µόνο στους τηλεθεατές του ΑNT1.

ΠΡΩΤΑΓΩΝΙΣΤΟΥΝ: Γιώργος Κιµούλης, Παναγιώτης Μπουγιούρης, Μάντυ Λάµπου, Σοφία Παυλίδου, Γρηγόρης Σταµούλης, Σοφοκλής Πέππας
ΠΑΙΖΟΥΝ: Κλέλια Ρένεση, Σοφία Πανάγου, Σταύρος Νικολαϊδης
ΔΙΕΥΘΥΝΣΗ ΦΩΤΟΓΡΑΦΙΑΣ: Σωκράτης Μιχαλόπουλος
ΣΕΝΑΡΙΟ: Σταύρος Αβδούλος, Ειρήνη Ριτσώνη
ΣΚΗΝΟΘΕΣΙΑ: Γιάννης Βασιλειάδης
ΠΑΡΑΓΩΓΗ: Στράτος Μαρκίδης, Γιάννης Βασιλειάδης

General
Complete name : Ant1.Iatriko.aporrhto.S01E06.avi
Format : AVI
Format/Info : Audio Video Interleave
File size : 318 MiB
Duration : 40mn 37s
Overall bit rate : 1 093 Kbps
Writing application : VirtualDubMod 1.5.4.1 (build 2178/release)
Writing library : VirtualDubMod build 2178/release

ΙΑΤΡΙΚΟ ΑΠΟΡΡΗΤΟ S01E6 - Ant1.Iatriko.aporrhto.S01E06 http://ezaccess.at.ua/

Video
ID : 0
Format : MPEG-4 Visual
Format profile : Advanced Simple@L5
Format settings, BVOP : Yes
Format settings, QPel : No
Format settings, GMC : No warppoints
Format settings, Matrix : Custom
Codec ID : XVID
Codec ID/Hint : XviD
Duration : 40mn 37s
Bit rate : 956 Kbps
Width : 576 pixels
Height : 432 pixels
Display aspect ratio : 4:3
Frame rate : 25.000 fps
Resolution : 8 bits
Colorimetry : 4:2:0
Scan type : Progressive
Bits/(Pixel*Frame) : 0.154
Stream size : 278 MiB (87%)
Writing library : XviD 1.2.1 (UTC 2008-12-04)

Audio
ID : 1
Format : MPEG Audio
Format version : Version 1
Format profile : Layer 3
Mode : Joint stereo
Format_Settings_ModeExtension : MS Stereo
Codec ID : 55
Codec ID/Hint : MP3
Duration : 40mn 37s
Bit rate mode : Constant
Bit rate : 128 Kbps
Channel(s) : 2 channels
Sampling rate : 48.0 KHz
Stream size : 37.2 MiB (12%)
Alignment : Aligned on interleaves
Interleave, duration : 40 ms (1.00 video frame)
Interleave, preload duration : 504 ms
Writing library : LAME3.98r
Encoding settings : -m j -V 4 -q 2 -lowpass 17 -b 128


Free DownLoad Links - Κατεβάστε εδώ:

Storage.to - Σε 1 Λινκ

ή

RapidShare.com - Μέρος 1ο
RapidShare.com - Μέρος 2ο

Κατηγορία: Greek TV (ANT1) |
Only registered users can add comments.
[ Registration | Login ]

Σύνδεση / Εγγραφή

Login:
Password:

Φιλικές Σελίδες

Αναζήτηση Σελίδας

Αναζήτηση Μέσω Google

EZ Archive