Sunday - Κυριακή, 21 July 2019, 13:05
Καλωσόρισες Guest | RSS

EZAccess Ελληνική Τηλεόραση

Κεντρική Σελίδα » 2013 » January - Ιανουάριος » 13 » INDIANA JONES: THE COMPLETE ADVENTURES QUADRILOGY (1981-2008) «ΕΛΛΗΝΙΚΟΙ ΥΠΟΤΙΤΛΟΙ»
INDIANA JONES: THE COMPLETE ADVENTURES QUADRILOGY (1981-2008) «ΕΛΛΗΝΙΚΟΙ ΥΠΟΤΙΤΛΟΙ»


INDIANA JONES: THE COMPLETE ADVENTURES QUADRILOGY (1981-2008) «ΕΛΛΗΝΙΚΟΙ ΥΠΟΤΙΤΛΟΙ»


Raiders.of.the.Lost.Ark
Director: Steven Spielberg
Writers: Lawrence Kasdan, George Lucas
Cast:
Harrison Ford
Karen Allen
Paul Freeman
Ronald Lacey
John Rhys-Davies
Denholm Elliott
Alfred Molina



Λίγο πριν το ξέσπασμα του Β΄ Παγκοσμίου Πολέμου και λίγο μετά που έχουν γίνει φανερές οι προθέσεις ή μάλλον οι διαθέσεις του Χίτλερ, η κυβέρνηση των Ηνωμένων Πολιτειών της Αμερικής αναθέτει στον αρχαιολόγο Indiana Jones τον εντοπισμό της Κιβωτού των δέκα εντολών. Ο δρόμος προς το πολυπόθητο και μυθικό εύρημα που εξασφαλίζει απόλυτη δύναμη στον κάτοχό του περνάει μέσα από την αντίστοιχη επιθυμία του χιτλερικού επιτελείου που επικουρείται από τον Rene Belloq έναν Γάλλο αρχαιολόγο, με αμφιλεγόμενες αρχές και εξαιρετικά ελαστική αντίληψη περί αφοσίωσης...

The.Temple.of.Doom.1984
Director: Steven Spielberg
Writers: Willard Huyck, Gloria Katz
Cast:
Harrison Ford
Kate Capshaw
Jonathan Ke Quan
Amrish Puri
Roshan Seth
Philip Stone
Dan Aykroyd



Σαγκάη, 1935. Ο Ιντιάνα Τζόoυvς αναζητά εν αγωvίως ένα ανεκτίμητο διαμάντι με μαγικές ιδιότητες. Οι έρευνες του τον οδηγούν σ ένα πολυτελές νυχτερινό κέντρο, όπου χάνει μέσα απ τα χέρια του το διαμάντι, αλλά γνωρίζει τη Γoυίλι, μια γοητευτική τραγουδίστρια. Μαζί της, o Ιντιάνα θα ταξιδέψει στις Ινδίες, για να σώσει ένα χωριό από μια αρχαία κατάρα. Ένα πανέξυπνο παιδί θα βοηθήσει τον Ivτι και τη Γoυίλι να διασχίσουν μια δύσβατη ζούγκλα και oι τρεις τους θα καταλήξουν, ύστερα από απίθανες περιπέτειες, στα υπόγεια του παλατιού ενός μαχαραγιά. Εκεί o ήρωας μας έρχεται αντιμέτωπος μ έναν μαύρο μάγο της Θεάς Κάλι, που θέλει τον πολύτιμο λίθο για να κατακτήσει τον κόσμο…

The.Last.Crusade.1989
Director: Steven Spielberg
Writers: Jeffrey Boam (screenplay), George Lucas
Cast:
Harrison Ford
Sean Connery
Denholm Elliott
Alison Doody
John Rhys-Davies
Julian Glover
River Phoenix



Οι ναζί αναζητούν το άγιο δισκοπότηρο. Απαγάγουν τον πατέρα τού Ιντιάνα Τζόουνς, που έχει στην κατοχή του ένα σημειωματάριο με τις πιθανές τοποθεσίες, και τον κρατούν αιχμάλωτο σε πύργο. Ο διάσημος αρχαιολόγος ταξιδεύει στην Αυστρία, προκειμένου να τον ελευθερώσει και να βρει το πολύτιμο αντικείμενο πριν από τους πράκτορες του Χίτλερ.

The.Kingdom.of.the.Crystal.Skull.2008
Director: Steven Spielberg
Writers: David Koepp, George Lucas
Cast:
Harrison Ford
Cate Blanchett
Karen Allen
Shia LaBeouf
Ray Winstone
John Hurt
Jim Broadbent



Αυτή τη φορά βρίσκουμε τον Ιντιάνα Τζόουνς (Χάρισον Φορντ), το γοητευτικό καθηγητή Αρχαιολογίας με το δερμάτινο μπουφάν, το καπέλο και το μαστίγιο, εν έτει 1957, στην κορύφωση του Ψυχρού Πολέμου, αντιμέτωπο πλέον όχι με Ναζί, αλλά με πράκτορες της τότε Σοβιετικής Ένωσης…
Επιστρέφοντας στο Κολέγιο όπου διδάσκει, ο Ιντιάνα Τζόουνς ενημερώνεται πως, λόγω των ριψοκίνδυνων δραστηριοτήτων του, ο Πρύτανης δέχεται έντονες πιέσεις από την κυβέρνηση προκειμένου να τον απολύσει. Στο δρόμο για το σπίτι του, ο Ιντιάνα γνωρίζεται με έναν επαναστάτη νέο, το Ματ (Σάια ΛαMπουφ) που τον προκαλεί σε μια νέα περιπέτεια, τεράστιου αρχαιολογικού ενδιαφέροντος: την ανακάλυψη ενός θρυλικού Κρυστάλλινου Κρανίου…
Καθώς όμως οι δυο τους ξεκινάνε για τις πλέον απόμερες γωνιές του Περού, συνειδητοποιούν πολύ γρήγορα πως δεν είναι οι μόνοι που προσπαθούν να το βρουν. Σοβιετικοί πράκτορες, με αρχηγό τους την αδίστακτη Ιρίνα Σπάλκο (Κέιτ Μπλάνσετ), βρίσκονται στα ίχνη του Κρυστάλλινου Κρανίου, προκειμένου να μπορέσουν, αποκτώντας το, να κυριαρχήσουν στον κόσμο… αρκεί βέβαια να κατορθώσουν να αποκωδικοποιήσουν τα μυστικά του.
Η τύχη του Κρυστάλλινου Κρανίου βρίσκεται εξολοκλήρου στα χέρια του Ιντιάνα Τζόουνς που θα κληθεί να αναμετρηθεί με τους αδίστακτους Σοβιετικούς, ώστε το θρυλικό Κρανίο να μην πέσει σε λάθος χέρια…

Ενδεικτικα Screenshot










Ενδεικτικα media info
Indiana.Jones.COMPLETE.Quadrilogy.1981-2008.720p.BluRay.DTS.x264\Indiana Jones and the Temple of Doom (1984) BRRip.x264.AC3 - PsiX\Indiana Jones and the Temple of Doom (1984) BRRip.x264.AC3 - PsiX.mkv
Format                                   : Matroska
Format version                           : Version 2
File size                                : 1.70 GiB
Duration                                 : 1h 58mn
Overall bit rate                         : 2 049 Kbps
Encoded date                             : UTC 2012-09-24 19:01:10
Writing application                      : mkvmerge v5.6.0 ('Kenya Kane') built on May 27 2012 16:44:04
Writing library                          : libebml v1.2.3 + libmatroska v1.3.0

Video
ID                                       : 1
Format                                   : AVC
Format/Info                              : Advanced Video Codec
Format profile                           : High@L3.0
Format settings, CABAC                   : Yes
Format settings, ReFrames                : 4 frames
Codec ID                                 : V_MPEG4/ISO/AVC
Duration                                 : 1h 58mn
Bit rate                                 : 1 600 Kbps
Width                                    : 720 pixels
Height                                   : 304 pixels
Display aspect ratio                     : 2.35:1
Frame rate mode                          : Constant
Frame rate                               : 23.976 fps
Color space                              : YUV
Chroma subsampling                       : 4:2:0
Bit depth                                : 8 bits
Scan type                                : Progressive
Bits/(Pixel*Frame)                       : 0.305
Stream size                              : 1.29 GiB (76%)
Writing library                          : x264 core 125 r2200 999b753


Audio
ID                                       : 2
Format                                   : AC-3
Format/Info                              : Audio Coding 3
Mode extension                           : CM (complete main)
Format settings, Endianness              : Big
Codec ID                                 : A_AC3
Duration                                 : 1h 58mn
Bit rate mode                            : Constant
Bit rate                                 : 448 Kbps
Channel(s)                               : 6 channels
Channel positions                        : Front: L C R, Side: L R, LFE
Sampling rate                            : 48.0 KHz
Bit depth                                : 16 bits
Compression mode                         : Lossy
Stream size                              : 380 MiB (22%)
Default                                  : Yes
Forced                                   : No

http://4.bp.blogspot.com/_7wsQzULWIwo/SwALMl0nnQI/AAAAAAAACLs/Hm8u1Jqo0YY/s400/download-orig.png


4.TAINIES.1ND1AN0S.part1.rar

4.TAINIES.1ND1AN0S.part2.rar

4.TAINIES.1ND1AN0S.part3.rar

Ή


http://dfiles.eu/files/0cn3ivx7v 4.TAINIES.1ND1AN0S.part1.rar
http://dfiles.eu/files/be8v5tb6b 4.TAINIES.1ND1AN0S.part2.rar
http://dfiles.eu/files/hl5gsass3 4.TAINIES.1ND1AN0S.part3.rar


Κωδικός αποσυμπίεσης:
thelwseires
Κατηγορία: ΑΛΛΑ ΚΑΝΑΛΙΑ (ΔΙΑΦΟΡΑ) |
Only registered users can add comments.
[ Registration | Login ]

Σύνδεση / Εγγραφή

Login:
Password:

Φιλικές Σελίδες

Αναζήτηση Σελίδας

Αναζήτηση Μέσω Google

EZ Archive