Monday - Δευτέρα, 12 April 2021, 08:31
Καλωσόρισες Guest | RSS

EZAccess Ελληνική Τηλεόραση

Κεντρική Σελίδα » 2013 » November - Νοέμβριος » 17 » ΚΑΠΟΤΕ ΣΤΗ ΡΩΜΗ - When In Rome 2010 BRRip «ΕΝΣΩΜΑΤΩΜΕΝΟΙ ΕΛΛΗΝΙΚΟΙ ΥΠΟΤΙΤΛΟΙ»
ΚΑΠΟΤΕ ΣΤΗ ΡΩΜΗ - When In Rome 2010 BRRip «ΕΝΣΩΜΑΤΩΜΕΝΟΙ ΕΛΛΗΝΙΚΟΙ ΥΠΟΤΙΤΛΟΙ»


ΚΑΠΟΤΕ ΣΤΗ ΡΩΜΗ - When In Rome 2010 BRRip «ΕΝΣΩΜΑΤΩΜΕΝΟΙ ΕΛΛΗΝΙΚΟΙ ΥΠΟΤΙΤΛΟΙ»


Σκηνοθεσία: Mark Steven Johnson
Σενάριο: David Diamond, David Weissman
Πρωταγωνιστούν: Kristen Bell, Josh Duhamel, Anjelica Huston, Will Arnett
Χώρα: USA
Έτος παραγωγής: 2010
Κατηγορία: Comedy | Romance

Μία φιλόδοξη νεαρή Νεοϋορκέζα χωρίς ρομαντικές αυταπάτες επισκέπτεται τη Ρώμη σε ένα ταξίδι-αστραπή. Εκεί, μαζεύει προκλητικά μερικά μαγικά κέρματα από ένα, 'ανόητο' γι' αυτήν, συντριβάνι της αγάπης με αποτέλεσμα να προσελκύσει αναπάντεχα ένα πλήθος περίεργων μνηστήρων: έναν μεγιστάνα της βιομηχανίας των λουκάνικων (που τον υποδύεται ο Ντάνι ΝτεΒίτο), έναν πλανόδιο μάγο, έναν ζωγράφο γεμάτο λατρεία και ένα μοντέλο με ναρκισσιστικές τάσεις. Όταν όμως γνωρίζει έναν πολύ γοητευτικό ρεπόρτερ που την φλερτάρει με τον αντίστοιχο ζήλο, πως μπορεί να καταλάβει αν η δική του αγάπη είναι αληθινή;… Τελικά υπάρχουν αληθινά παραμύθια στη σημερινή εποχή;





Format                                   : AVI
Format/Info                              : Audio Video Interleave
File size                                : 1.44 GiB
Duration                                 : 1h 30mn
Overall bit rate                         : 2 265 Kbps
Writing application                      : VirtualDubMod 1.5.10.2 (build 2542/release)
Writing library                          : VirtualDubMod build 2542/release

Video
ID                                       : 0
Format                                   : MPEG-4 Visual
Format profile                           : Advanced Simple@L5
Format settings, BVOP                    : 1
Format settings, QPel                    : No
Format settings, GMC                     : No warppoints
Format settings, Matrix                  : Default (H.263)
Muxing mode                              : Packed bitstream
Codec ID                                 : XVID
Codec ID/Hint                            : XviD
Duration                                 : 1h 30mn
Bit rate                                 : 1 809 Kbps
Width                                    : 720 pixels
Height                                   : 304 pixels
Display aspect ratio                     : 2.35:1
Frame rate                               : 23.976 fps
Color space                              : YUV
Chroma subsampling                       : 4:2:0
Bit depth                                : 8 bits
Scan type                                : Progressive
Compression mode                         : Lossy
Bits/(Pixel*Frame)                       : 0.345
Stream size                              : 1.15 GiB (80%)
Writing library                          : XviD 1.2.1 (UTC 2008-12-04)

Audio
ID                                       : 1
Format                                   : AC-3
Format/Info                              : Audio Coding 3
Mode extension                           : CM (complete main)
Format settings, Endianness              : Big
Codec ID                                 : 2000
Duration                                 : 1h 30mn
Bit rate mode                            : Constant
Bit rate                                 : 448 Kbps
Channel(s)                               : 6 channels
Channel positions                        : Front: L C R, Side: L R, LFE
Sampling rate                            : 48.0 KHz
Bit depth                                : 16 bits
Compression mode                         : Lossy
Stream size                              : 291 MiB (20%)
Alignment                                : Split accross interleaves
Interleave, duration                     : 64 ms (1.53 video frames)
Interleave, preload duration             : 500 ms

Κατεβάστε εδώ:
kapotesthrwmh.avi.html

Κατηγορία: ΑΛΛΑ ΚΑΝΑΛΙΑ (ΔΙΑΦΟΡΑ) |
Only registered users can add comments.
[ Registration | Login ]

Σύνδεση / Εγγραφή

Login:
Password:

Φιλικές Σελίδες

Αναζήτηση Σελίδας

Αναζήτηση Μέσω Google

EZ Archive