Saturday - Σάββατο, 17 April 2021, 22:20
Καλωσόρισες Guest | RSS

EZAccess Ελληνική Τηλεόραση

Κεντρική Σελίδα » 2012 » October - Οκτώβριος » 26 » ΚΑΤΣΑΡΙΔΑΚΙ ΑΓΑΠΗ ΜΟΥ (ΠΑΚΕΤΟ 4 ΤΑΙΝΙΩΝ) - HERBIE MOVIE PACK «ΕΛΛΗΝΙΚΟΙ ΥΠΟΤΙΤΛΟΙ»
ΚΑΤΣΑΡΙΔΑΚΙ ΑΓΑΠΗ ΜΟΥ (ΠΑΚΕΤΟ 4 ΤΑΙΝΙΩΝ) - HERBIE MOVIE PACK «ΕΛΛΗΝΙΚΟΙ ΥΠΟΤΙΤΛΟΙ»


ΚΑΤΣΑΡΙΔΑΚΙ ΑΓΑΠΗ ΜΟΥ (ΠΑΚΕΤΟ 4 ΤΑΙΝΙΩΝ) - HERBIE MOVIE PACK «ΕΛΛΗΝΙΚΟΙ ΥΠΟΤΙΤΛΟΙ»


Οι περιπέτειες ενός μικρού αυτοκινήτου με... ανθρώπινα αισθήματα, που παίρνει μέρος σε ράλλυ.

Ο Herbie είναι ένα Volkswagen το οποίο κατεβαίνει σε αγώνες... Πάντα είναι το outsider, κανείς δεν το υπολογίζει, αλλά πάντα καταφέρνει και κερδίζει!  Από το 1969 που πρωτοκυκλοφόρησε η πρώτη ταινία, «The Love Bug», έχουν βγει στις αίθουσες άλλα 3 φιλμ με τις περιπέτειες του Herbie: «Herbie Rides Back» (1974), «Herbie Goes to Monte Carlo» (1977) και «Herbie Goes Bananas» (1980), αλλά και μια τηλεταινία-ρημέικ του 1997.



1967 - Herbie Rides Again

Ο Χέρμπι, ακολουθώντας τα χνάρια της γνωστής επιτυχίας «Κατσαριδάκι Αγάπη Μου», ανάβει και πάλι τη μηχανή του και ετοιμάζεται για άλλη μια μεγάλη περιπέτεια! Αυτή τη φορά, οδηγός του Χέρμπι είναι η βραβευμένη με Oscar®* Έλλεν Χέιζ, που με τη βοήθεια του Κεν Μπέρρι και της Στέφανι Πάουερς θα προσπαθήσει να σώσει ένα πανέμορφο Βικτοριανό σπίτι από τα νύχια του άπληστου μεγαλομεσίτη Κήναν Γουίν, του πιο αγαπητού κακού της Disney. Μόνο όμως ο Χέμρπι μπορεί να τον εμποδίσει! Δέστε λοιπόν τις ζώνες σας και απολαύστε μια απίθανη κούρσα με το πιο τρελό αυτοκίνητο που είδατε ποτέ!

Video
Format                           : AVC
Format/Info                      : Advanced Video Codec
Format profile                   : Baseline@L1.3
Format settings, CABAC           : No
Format settings, ReFrames        : 1 frame
Codec ID                         : avc1
Duration                         : 1h 28mn
Bit rate mode                    : Variable
Bit rate                         : 1783 Kbps
Width                            : 848 pixels
Height                           : 480 pixels
Display aspect ratio             : 16/9
Frame rate mode                  : Constant
Frame rate                       : 29.970 fps
Colorimetry                      : 4:2:0
Scan type                        : Progressive
Bits/(Pixel*Frame)               : 0.146
Stream size                      : 1.10 GiB
Encoded date                     : UTC 2006-03-01 20:56:37
Tagged date                      : UTC 2006-03-01 20:56:37

Audio
Format                           : AAC
Format/Info                      : Advanced Audio Codec
Format version                   : Version 4
Format profile                   : LC
Format settings, SBR             : No
Codec ID                         : 40
Duration                         : 1h 28mn
Bit rate mode                    : Variable
Bit rate                         : 128 Kbps
Channel(s)                       : 2 channels
Channel positions                : L R
Sampling rate                    : 48.0 KHz
Resolution                       : 16 bits
Stream size                      : 80.9 MiB
Encoded date                     : UTC 2006-03-01 20:56:37
Tagged date                      : UTC 2006-03-01 20:56:37



1969 - Herbie The Love Bug

Video
Format                           : AVC
Format/Info                      : Advanced Video Codec
Format profile                   : Baseline@L1.3
Format settings, CABAC           : No
Format settings, ReFrames        : 1 frame
Codec ID                         : avc1
Duration                         : 1h 28mn
Bit rate mode                    : Variable
Bit rate                         : 1783 Kbps
Width                            : 848 pixels
Height                           : 480 pixels
Display aspect ratio             : 16/9
Frame rate mode                  : Constant
Frame rate                       : 29.970 fps
Colorimetry                      : 4:2:0
Scan type                        : Progressive
Bits/(Pixel*Frame)               : 0.146
Stream size                      : 1.10 GiB
Encoded date                     : UTC 2006-03-01 20:56:37
Tagged date                      : UTC 2006-03-01 20:56:37

Audio
Format                           : AAC
Format/Info                      : Advanced Audio Codec
Format version                   : Version 4
Format profile                   : LC
Format settings, SBR             : No
Codec ID                         : 40
Duration                         : 1h 28mn
Bit rate mode                    : Variable
Bit rate                         : 128 Kbps
Channel(s)                       : 2 channels
Channel positions                : L R
Sampling rate                    : 48.0 KHz
Resolution                       : 16 bits
Stream size                      : 80.9 MiB
Encoded date                     : UTC 2006-03-01 20:56:37
Tagged date                      : UTC 2006-03-01 20:56:37



1977 - Herbie Goes To Monte Carlo

Ο Herbie τρέχει πάλι σε αγώνες, ερωτεύεται μία Lancia, κάνει νάζια στον Jim Douglas και στον συνοδηγό του Wheely Applegate, ενώ την ίδια στιγμή τα βάζει με ληστές διαμαντιών!

Video
Format                           : MPEG-4 Visual
Format settings, BVOP            : Yes
Format settings, QPel            : No
Format settings, GMC             : No warppoints
Format settings, Matrix          : Default
Codec ID                         : DX50
Codec ID/Hint                    : DivX 5
Duration                         : 1h 40mn
Bit rate                         : 780 Kbps
Width                            : 720 pixels
Height                           : 576 pixels
Display aspect ratio             : 5/4
Frame rate                       : 25.000 fps
Standard                         : PAL
Resolution                       : 8 bits
Colorimetry                      : 4:2:0
Scan type                        : Progressive
Bits/(Pixel*Frame)               : 0.075
Stream size                      : 561 MiB
Writing library                  : DivX 6.0.0 (UTC 2005-06-15)

Audio
Format                           : MPEG Audio
Format version                   : Version 1
Format profile                   : Layer 3
Codec ID                         : 55
Codec ID/Hint                    : MP3
Duration                         : 1h 40mn
Bit rate mode                    : Constant
Bit rate                         : 160 Kbps
Channel(s)                       : 2 channels
Sampling rate                    : 44.1 KHz
Resolution                       : 16 bits
Video delay                      : 26ms
Stream size                      : 115 MiB
Title                            : Audio Stream
Writing library                  : LAME3.92



1980 - Herbie Goes Bananas

Στα εξωτικά .. της Κεντρική Αμερικής, ο διάσημος Χέρμπι, το αγαπημένο κατσαριδάκι όλων, μας επιδεικνύει για άλλη μια φορά τα χαρίσματα του και το πολλών οκτανίων χιούμορ του σε μια νέα κωμωδία γεμάτη περιπέτεια και γέλιο. Η δράση αρχίζει όταν ο Χέρμπι παρέα με τα δύο νέα του αφεντικά ξεκινάνε για το μεγάλο ράλι στο Ρίο ντε Τζανέϊρο. Στο δρόμο όμως συναντάνε ένα σωρό εμπόδια που ανεβάζουν την περιπέτεια αλλά και το γέλιο στα ύψη καθώς έρχονται αντιμέτωποι με μια συμμορία λαθρεμπόρων, πορτοφολάδων αλλά και με έναν εξαγριωμένο ταύρο...

Video
Format                           : MPEG Video
Format version                   : Version 2
Format profile                   : Main@Main
Format settings, Matrix          : Standard
Duration                         : 1h 27mn
Bit rate mode                    : Constant
Bit rate                         : 1676 Kbps
Nominal bit rate                 : 3562 Kbps
Width                            : 320 pixels
Height                           : 240 pixels
Display aspect ratio             : 4/3
Frame rate                       : 25.000 fps
Colorimetry                      : 4:2:0
Scan type                        : Progressive
Bits/(Pixel*Frame)               : 1.855
Writing library                  : Created by Nero

Audio
Format                           : MPEG Audio
Format version                   : Version 1
Format profile                   : Layer 2
Duration                         : 1h 27mn
Bit rate mode                    : Constant
Bit rate                         : 224 Kbps
Channel(s)                       : 2 channels
Sampling rate                    : 44.1 KHz
Resolution                       : 16 bits
Video delay                      : -40ms
Stream size                      : 115 MiB
Title                            : Audio Stream
Writing library                  : LAME3.92




http://4.bp.blogspot.com/_7wsQzULWIwo/SwALMl0nnQI/AAAAAAAACLs/Hm8u1Jqo0YY/s400/download-orig.png


Katsaridaki.Paketo.part1.rar

Katsaridaki.Paketo.part2.rar

ή

Katsaridaki.Paketo.part1.rar
Katsaridaki.Paketo.part2.rar


Κωδικός αποσυμπίεσης:
thelwseires
Κατηγορία: ΑΛΛΑ ΚΑΝΑΛΙΑ (ΔΙΑΦΟΡΑ) |
Only registered users can add comments.
[ Registration | Login ]

Σύνδεση / Εγγραφή

Login:
Password:

Φιλικές Σελίδες

Αναζήτηση Σελίδας

Αναζήτηση Μέσω Google

EZ Archive