Thursday - Πέμπτη, 13 August 2020, 22:15
Καλωσόρισες Guest | RSS

EZAccess Ελληνική Τηλεόραση

Κεντρική Σελίδα » 2014 » January - Ιανουάριος » 6 » ΚΛΑΣΙΚΑ ΠΑΡΑΜΥΘΙΑ ΝΤΙΣΝΕΥ (ΜΕΡΟΣ 1-5) «ΜΕΤΑΓΛΩΤΤΙΣΜΕΝΟ ΣΤΑ ΕΛΛΗΝΙΚΑ» - DISNEY FABLES VOLUME 1-5 «GREEK AUDIO»
ΚΛΑΣΙΚΑ ΠΑΡΑΜΥΘΙΑ ΝΤΙΣΝΕΥ (ΜΕΡΟΣ 1-5) «ΜΕΤΑΓΛΩΤΤΙΣΜΕΝΟ ΣΤΑ ΕΛΛΗΝΙΚΑ» - DISNEY FABLES VOLUME 1-5 «GREEK AUDIO»


ΚΛΑΣΙΚΑ ΠΑΡΑΜΥΘΙΑ ΝΤΙΣΝΕΥ (ΜΕΡΟΣ 1-5) «ΜΕΤΑΓΛΩΤΤΙΣΜΕΝΟ ΣΤΑ ΕΛΛΗΝΙΚΑ» -
DISNEY FABLES VOLUME 1-5 «GREEK AUDIO»

Σας παρουσιάζουμε τα παραμύθια της Walt Disney, μια σειρά από αξέχαστες ιστορίες με υπέροχη μουσική, εκπληκτικά κινούμενα σχέδια και χαρούμενους χαρακτήρες. Πέντε αγαπημένες, κλασικές ιστορίες της Disney ιδανικές για όλες τις ηλικίες.

Disney Fables Vol.1 DVDRip 2004
Ο Πρίγκιπας και ο Ζητιάνος
Ο Μίκυ Μάους, ο Γκούφυ, ο Ντόναλντ Ντακ και ο Πλούτο πρωταγωνιστούν στη νέα, χαρούμενη εκδοχή του γνωστού αριστουργήματος του Μάρκ Τουάιην. Όταν ένας καλοαναθρεμμένος πρίγκιπας και ένας ταπεινός χωρικός που μοιάζουν εκπληκτικά αλλάζουν θέση, μια σειρά από αστείες καταστάσεις συμβαίνουν μέχρι τελικά να αποκατασταθεί η τάξη και ο καθένας να ξαναγυρίσει στη θέση του.
Ο Μύθος του Ακέφαλου Καβαλάρη
Γνωρίστε στον Ικαμποντ Κρέην, τον αδύνατο, ψηλόλιγνο δάσκαλο που ονειρεύεται να κατακτήσει την καρδιά της πανέμορφης Κατρίνα. Τα σχέδια του όμως χαλάνε όταν στην υπόθεση μπλέκεται ο Μπρομ Μπρόουνς, ο γνωστός ταραχοποιός της πόλης. Η αντιπαράθεσή τους παίρνει κωμικές διαστάσεις και φέρνουν τον Ίκαμποντ αντιμέτωπο με το φοβερό Μύθο του Ακέφαλου Καβαλάρη.

Διάρκεια: 00:57:25
Μέγεθος: 746 mb

Disney Fables Vol. 2 DVDRip 2004
Η βραβευμένη με Oscar ιστορία, Το Ασχημόπαπο, μας περιγράφει πως ένα μικρό κι άσχημο παπάκι, μετατρέπεται σε ένα πανέμορφο κύκνο με τη δύναμη της αγάπης. Στο Μικρό Χιαγουάθα, δείτε τη σχέση του μικρού Ινδιάνου με ένα μικρό λαγουδάκι και στη συνέχεια απολαύστε ένα κόκορα, ένα αρνάκι και ένα γουρουνάκι να δίνουν την καλύτερη συναυλία της ζωής τους στην Συμφωνία των Ζώων.
Στο Γουίνκεν Μπλίνκεν και Νοντ, τρία μωράκια ταξιδεύουν στο φεγγάρι μέσα σε ένα ξύλινο παπούτσι για να πάνε να ψαρέψουνε αστέρια. Στο γοργονο-μωράκια, τα κύματα του ωκεανού μεταμορφώνονται σε πανέμορφα μικρά θαλάσσια αγγελάκια. Στον Παλιό Μύλο, μια ακόμα βραβευμένη με Oscar ταινία, παρακολουθούμε πώς ένας παλιός εγκαταλελειμμένος ανεμόμυλος γίνεται το καταφύγιο για τα πουλιά, τα ποντικάκια και άλλα πλάσματα της φύσης κατά τη διάρκεια της καταιγίδας.

Διάρκεια: 00:50:38
Μέγεθος: 746 mb

Disney Fables Vol. 3 DVDRip 2004
Ο Ντόναλντ Στη Χώρα Της Μαθηματικής Μαγείας
Σε αυτή την ιστορία ο περίεργος Ντόναλντ Ντάκ αποφασίζει να μπει στο μυστηριώδη κόσμο της φαντασίας. Στόχος του είναι να φτάσει στη Χώρα Της Μαθηματικής Μαγείας! Μια τοποθεσία όπου τα δέντρα έχουν τετράγωνες ρίζες και τα ποτάμια ξεχειλίζουν με νούμερα!
Ο Μπεν Και Εγώ
Μπορεί ένα μικρό ποντικάκι ν' αλλάξει τη ροή της ιστορίας; Ναι, τώρα μπορούμε να το φανερώσουμε και σ' εσάς: ο Μπέντζαμιν μπορεί να μη γινόταν ποτέ ο μεγάλος διάσημος άνδρας που είναι σήμερα αν δεν είχε στο πλευρό του το ποντικάκι Άμος!
Ο Ντόναλντ Στο Μουσείο Μοντέρνων Εφευρέσεων
Όταν ο Ντόναλντ περιπλανιέται στο μουσείο των "Μοντέρνων Εφευρέσεων", βρίσκει πολύ περισσότερα πράγματα απ' ότι περίμενε. Ένα σωρό ανακαλύψεις που τον κάνουν κυριολεκτικά να τα χάσει.

Διάρκεια: 00:57:41
Μέγεθος: 746 mb

Disney Fables Vol. 4 - DVDRip 2004
Η Χελώνα και ο Λαγός
Απολαύστε τη διαχρονική ιστορία Ο Λαγός και η Χελώνα, με το Λαγό Μαξ και το Χελώνα Τόμπι να συναγωνίζονται με κύριο αντίπαλο το χρόνο. Ετοιμαστείτε για μια επεισοδιακή ρεβάνς όταν ο Λαγός Μαξ και ο Χελώνας Τόμπι επιστρέφουν στο ρινγκ μ' ένα απίστευτα αστείο αγώνα που βγάζουν το Χελώνα κυριολεκτικά από το καβούκι του.
Ο Βασιλιάς Ποσειδώνας
Απολαύστε τις δύο παλιές ιστορίες, ο Βασιλιάς Κόουλ και ο Βασιλιάς Ποσειδώνας. Δείτε όλους τους φίλους προσκαλεσμένους στο κάστρο του βασιλιά Κόουλ σε μια βραδιά μουσικής και το βασιλιά Ποσειδώνα να σώζει τα πλάσματα της θάλασσας από τους πειρατές .

Διάρκεια: 00:48:54
Μέγεθος: 905 mb

Disney Fables Vol. 5 - DVDRip 2005
Τα Τρία Γουρουνάκια
Δείτε την βραβευμένη με Oscar ιστορία Οι Τρεις Τυφλοί Ποντικοφύλακες και δείτε τις περιπέτειες των τριών φίλων. Στα Τρία Γουρουνάκια, δείτε πως ο Κακός ο Λύκος καταφέρνει να τσακώσει τα μικρά γουρουνάκια και πως τελικά την πατάει στα Τρια Λυκάκια όταν τα μικρά λυκάκια του θιάσου του ξεσπούν σε φωνές.
Φερντινάντ Ο Ταύρος
Ανακαλύψτε τη μαγεία και το μυστήριο στα Αστεία Λαγουδάκια και δείτε την περιπλάνηση του Λάμπερτ, Το Λιοντάρι που Κοιμάται, το μικρό και δειλό λιονταράκι που καταφέρνει να βρει το κουράγιο να προστατέψει την οικογένειά του από τους κακούς.Ο Φερντινάντ Ο Ταύρος, μια ακόμα βραβευμένη με Oscar®* ιστορία, μας μεταφέρει στη Μαδρίτη σ' έναν αγώνα ταυρομαχίας και σε μια απίστευτη περιπέτεια όπου από λάθος όλοι νομίζουν ότι ο καλός και αγαθός Φερντινάντ είναι ένας ατρόμητος ταύρος έτοιμος να παλέψει.

Διάρκεια: 00:47:53
Μέγεθος: 746 mb







General
Format : AVI
Format/Info : Audio Video Interleave
File size : 746 MiB
Duration : 57mn 25s
Overall bit rate : 1 817 Kbps
Writing application : VirtualDubMod 1.5.4.1 (build 2178/release)
Writing library : VirtualDubMod build 2178/release

Video
ID : 0
Format : MPEG-4 Visual
Format settings, BVOP : 1
Format settings, QPel : No
Format settings, GMC : No warppoints
Format settings, Matrix : Default (H.263)
Muxing mode : Packed bitstream
Codec ID : DX50
Codec ID/Hint : DivX 5
Duration : 57mn 25s
Bit rate : 1 673 Kbps
Width : 640 pixels
Height : 480 pixels
Display aspect ratio : 4:3
Frame rate : 25.000 fps
Color space : YUV
Chroma subsampling : 4:2:0
Bit depth : 8 bits
Scan type : Progressive
Compression mode : Lossy
Bits/(Pixel*Frame) : 0.218
Stream size : 687 MiB (92%)
Writing library : DivX 5.2.1 (WaffleDay) (UTC 2004-09-08)

Audio
ID : 1
Format : MPEG Audio
Format version : Version 1
Format profile : Layer 3
Mode : Joint stereo
Mode extension : MS Stereo
Codec ID : 55
Codec ID/Hint : MP3
Duration : 57mn 25s
Bit rate mode : Variable
Bit rate : 128 Kbps
Channel(s) : 2 channels
Sampling rate : 48.0 KHz
Compression mode : Lossy
Stream size : 53.8 MiB (7%)
Alignment : Aligned on interleaves
Interleave, duration : 24 ms (0.60 video frame)
Interleave, preload duration : 140 ms
Writing library : LAME3.96r
Encoding settings : -m j -V 4 -q 2 -lowpass 17.5 --abr 128
Language : Greek

Κατεβάστε εδώ:
PARAMU8IA.1-5.part1.rar.html
PARAMU8IA.1-5.part2.rar.html
PARAMU8IA.1-5.part3.rar.html

Κωδικός αποσυμπίεσης των αρχείων rar:
thelwseires

Κατηγορία: ΑΛΛΑ ΚΑΝΑΛΙΑ (ΔΙΑΦΟΡΑ) |
Only registered users can add comments.
[ Registration | Login ]

Σύνδεση / Εγγραφή

Login:
Password:

Φιλικές Σελίδες

Αναζήτηση Σελίδας

Αναζήτηση Μέσω Google

EZ Archive