Monday - Δευτέρα, 12 April 2021, 17:39
Καλωσόρισες Guest | RSS

EZAccess Ελληνική Τηλεόραση

Κεντρική Σελίδα » 2013 » May - Μάιος » 29 » LASSIE'S RESCUE RANGERS (8 ΕΠΕΙΣΟΔΙΑ) «ΜΕΤΑΓΛΩΤΤΙΣΜΕΝΟ ΣΤΑ ΕΛΛΗΝΙΚΑ» «GREEK AUDIO»
LASSIE'S RESCUE RANGERS (8 ΕΠΕΙΣΟΔΙΑ) «ΜΕΤΑΓΛΩΤΤΙΣΜΕΝΟ ΣΤΑ ΕΛΛΗΝΙΚΑ» «GREEK AUDIO»


LASSIE'S RESCUE RANGERS (8 ΕΠΕΙΣΟΔΙΑ) «ΜΕΤΑΓΛΩΤΤΙΣΜΕΝΟ ΣΤΑ ΕΛΛΗΝΙΚΑ» «GREEK AUDIO»


Οι Περιπέτειες της Γνωστής μας Λάσυ μαζί με την ομάδα διάσωσης.

Επεισόδια
01. The Animals Are Missing
02. Mystic Monster
03. Lassie's Special Assignment
04. The Imposters
05. Deadly Cargo
06. Grizzly
07. Deepsea Disaster
08. Black Out




Τεχνικά Χαρακτηριστικά (Ίδια για όλα τα επεισόδια)

General
Format                           : AVI
Format/Info                      : Audio Video Interleave
File size                        : 221 MiB
Duration                         : 21mn 37s
Overall bit rate                 : 1 427 Kbps
Writing application              : Lavf52.0.0

Video
ID                               : 0
Format                           : MPEG-4 Visual
Format profile                   : Advanced Simple@L5
Format settings, BVOP            : 1
Format settings, QPel            : No
Format settings, GMC             : No warppoints
Format settings, Matrix          : Default (MPEG)
Codec ID                         : XVID
Codec ID/Hint                    : XviD
Duration                         : 21mn 37s
Bit rate                         : 1 294 Kbps
Width                            : 576 pixels
Height                           : 432 pixels
Display aspect ratio             : 4:3
Frame rate                       : 25.000 fps
Color space                      : YUV
Chroma subsampling               : 4:2:0
Bit depth                        : 8 bits
Scan type                        : Progressive
Compression mode                 : Lossy
Bits/(Pixel*Frame)               : 0.208
Stream size                      : 200 MiB (91%)
Writing library                  : XviD 1.3.0.dev55

Audio
ID                               : 1
Format                           : MPEG Audio
Format version                   : Version 1
Format profile                   : Layer 2
Codec ID                         : 55
Codec ID/Hint                    : MP3
Duration                         : 20mn 28s
Bit rate mode                    : Constant
Bit rate                         : 128 Kbps
Channel(s)                       : 2 channels
Sampling rate                    : 44.1 KHz
Compression mode                 : Lossy
Stream size                      : 18.7 MiB (8%)
Alignment                        : Aligned on interleaves
Interleave, duration             : 28 ms (0.69 video frame)



8.EPS.LACY.rar


Κωδικός αποσυμπίεσης:
thelwseires
Κατηγορία: ΑΛΛΑ ΚΑΝΑΛΙΑ (ΔΙΑΦΟΡΑ) |
Only registered users can add comments.
[ Registration | Login ]

Σύνδεση / Εγγραφή

Login:
Password:

Φιλικές Σελίδες

Αναζήτηση Σελίδας

Αναζήτηση Μέσω Google

EZ Archive