Monday - Δευτέρα, 19 April 2021, 11:34
Καλωσόρισες Guest | RSS

EZAccess Ελληνική Τηλεόραση

Κεντρική Σελίδα » 2012 » August - Αύγουστος » 30 » Looney Tunes: Wile E Coyote and Road Runner [Pack 1949-2010] «ΜΕΤΑΓΛΩΤΤΙΣΜΕΝΟ ΣΤΑ ΕΛΛΗΝΙΚΑ»
Looney Tunes: Wile E Coyote and Road Runner [Pack 1949-2010] «ΜΕΤΑΓΛΩΤΤΙΣΜΕΝΟ ΣΤΑ ΕΛΛΗΝΙΚΑ»


Looney Tunes: Wile E Coyote and Road Runner [Pack 1949-2010] «ΜΕΤΑΓΛΩΤΤΙΣΜΕΝΟ ΣΤΑ ΕΛΛΗΝΙΚΑ»


Το πρώτο επεισόδιο των δύο αγαπημένων cartoon, παρουσιάστηκε το Σεπτέμβρη του 1949
(πολύ παλιό, εαν και έχει τίτλο "Fast and furry-ous".

Στα πρώτα επεισόδια της σειράς, οι ήρωες έχουν κάποιες μικροδιαφορές στην εμφάνιση και στα χαρακτηριστικά τους σε σχέση με τη συνέχεια: μικρότερο ύψος, κόκκινα μάτια (το κογιότ), πιο "απαλές" γραμμές στο σχήμα τους, πιο έντονα χρώματα, κ.ά. Παρόλα αυτά, η ιστορία είναι η ίδια και ο στόχος των ηρώων παραμένει αναλλοίωτος: Ο Wile E. Coyote προσπαθεί να πιάσει τον Road Runner και χρησιμοποιεί γι' αυτό κάθε θεμιτό ή αθέμιτο μέσα.

Σχετικά:
Είδος ταινίας: Action, Anime, short
Directors: Gerry Chiniquy, Friz Freleng
Stars: Mel Blanc, June Foray and Bea Benaderet
Πρεμιέρα: 1949-2010
Eπεισόδια: 50



Eπεισόδια:

1.  1949.09.16 - Fast and Furry-ous
2.  1952.05.24 - Beep, Beep
3.  1952.08.23 - Going! Going! Gosh!
4.  1953.09.19 - Zipping Along
5.  1954.08.14 - Stop! Look! And Hasten!
6.  1955.05.30 - Ready, Set, Zoom!
7.  1955.12.10 - Guided Muscle
8.  1956.05.05 - Gee Whiz-z-z-z
9.  1956.11.10 - There They Go-Go-Go!
10. 1957.01.26 - Scrambled Aches
11. 1957.09.14 - Zoom and Bored
12. 1958.04.12 - Whoa, Be-Gone!
13. 1958.10.11 - Hook, Line and Stinker
14. 1958.12.06 - Hip Hip-Hurry!
15. 1959.05.09 - Hot-Rod and Reel!
16. 1959.10.10 - Wild About Hurry
17. 1960.01.19 - Fastest With The Mostest
18. 1960.10.08 - Hopalong Casualty
19. 1961.01.21 - Zip 'N' Snort
20. 1961.06.03 - Lickety-Splat
21. 1961.11.11 - Beep Prepared
22. 1962.06.02 - Adventures of the Road Runner
23. 1962.06.30 - Zoom at the Top
24. 1963.12.31 - To Beep or Not to Beep
25. 1964.06.06 - War and Pieces
26. 1965.01.01 - Zip Zip Hooray
27. 1965.01.02 - Roadrunner a Go-Go
28. 1965.02.27 - The Wild Chase
29. 1965.07.31 - Rushing Roulette
30. 1965.08.21 - Run, Run, Sweet Road Runner
31. 1965.09.18 - Tired and Feathered
32. 1965.10.09 - Boulder Wham!
33. 1965.10.30 - Just Plane Beep
34. 1965.11.13 - Hairied and Hurried
35. 1965.12.11 - Highway Runnery
36. 1965.12.25 - Chaser on the Rocks
37. 1966.01.08 - Shot and Bothered
38. 1966.01.29 - Out and Out Rout
39. 1966.02.19 - The Solid Tin Coyote
40. 1966.03.12 - Clippety Clobbered
41. 1966.11.05 - Sugar and Spies
42. 1967 - Look Before You Beep
43. 1979.11.27 - Freeze Frame
44. 1980.05.21 - Soup or Sonic
45. 1994.12.21 - Chariots of Fur
46. 2000.12.30 - Little Go Beep
47. 2003.11.01 - Whizzard of Ow
48. 2010.07.30 - Coyote Falls
49. 2010.12.17 - Fur of Flying
50. 2010.12.17 - Rabid Rider

ScreenShots:








SubS:
Δεν χρειάζονται....γιατί δεν μιλάνε...


Info:
General
Format                           : AVI
Format/Info                      : Audio Video Interleave
File size                        : 51.3 MiB
Duration                         : 6mn 51s
Overall bit rate                 : 1 044 Kbps

Video
ID                               : 0
Format                           : MPEG-4 Visual
Codec ID                         : DIV3
Codec ID/Hint                    : DivX 3 Low
Duration                         : 6mn 51s
Bit rate                         : 906 Kbps
Width                            : 704 pixels
Height                           : 400 pixels
Display aspect ratio             : 16:9
Frame rate                       : 25.000 fps
Color space                      : YUV
Chroma subsampling               : 4:2:0
Bit depth                        : 8 bits
Compression mode                 : Lossy
Bits/(Pixel*Frame)               : 0.129
Stream size                      : 44.5 MiB (87%)

Audio
ID                               : 1
Format                           : MPEG Audio
Format version                   : Version 1
Format profile                   : Layer 3
Codec ID                         : 55
Codec ID/Hint                    : MP3
Duration                         : 6mn 51s
Bit rate mode                    : Constant
Bit rate                         : 128 Kbps
Channel(s)                       : 2 channels
Sampling rate                    : 44.1 KHz
Compression mode                 : Lossy
Stream size                      : 6.29 MiB (12%)
Alignment                        : Split accross interleaves
Interleave, duration             : 40 ms (1.00 video frame)
Interleave, preload duration     : 500 ms
Writing library                  : LAME3.97
Encoding settings                : -m s -V 4 -q 2 -lowpass 17 -b 128







http://depositfiles.com/files/ryxmjf0cz Dromeas.part1.rar
http://depositfiles.com/files/9gmqco307 Dromeas.part2.rar

ή

http://uploaded.net/file/mg3bcob8/Dromeas.part1.rar
http://uploaded.net/file/qep5e0zk/Dromeas.part2.rar

Pass: thelwseires

Κατηγορία: ΑΛΛΑ ΚΑΝΑΛΙΑ (ΔΙΑΦΟΡΑ) |
Only registered users can add comments.
[ Registration | Login ]

Σύνδεση / Εγγραφή

Login:
Password:

Φιλικές Σελίδες

Αναζήτηση Σελίδας

Αναζήτηση Μέσω Google

EZ Archive