Sunday - Κυριακή, 18 April 2021, 14:26
Καλωσόρισες Guest | RSS

EZAccess Ελληνική Τηλεόραση

Κεντρική Σελίδα » 2012 » September - Σεπτέμβριος » 2 » ΜΙΚΡΑ ΤΕΡΑΤΑΚΙΑ (13 ΕΠΕΙΣΟΔΙΑ) - LITTLE MONSTERS (13 EPISODES) «ΜΕΤΑΓΛΩΤΤΙΣΜΕΝΟ ΣΤΑ ΕΛΛΗΝΙΚΑ»
ΜΙΚΡΑ ΤΕΡΑΤΑΚΙΑ (13 ΕΠΕΙΣΟΔΙΑ) - LITTLE MONSTERS (13 EPISODES) «ΜΕΤΑΓΛΩΤΤΙΣΜΕΝΟ ΣΤΑ ΕΛΛΗΝΙΚΑ»


ΜΙΚΡΑ ΤΕΡΑΤΑΚΙΑ (13 ΕΠΕΙΣΟΔΙΑ) - LITTLE MONSTERS (13 EPISODES) «ΜΕΤΑΓΛΩΤΤΙΣΜΕΝΟ ΣΤΑ ΕΛΛΗΝΙΚΑ»


Σκηνοθεσία: Jay Duplass, Mark Duplass
Σενάριο: Tony Garth
Ηθοποιοί: Miley Cyrus, Liam Hemsworth και Greg Kinnear

Οι πρωταγωνιστές της σκανταλιάς είναι τα Μικρά Τερατάκια! Σαν πραγματικός ανεμοστρόβιλος έρχονται να σας ξεσηκώσουν και να σας παρασύρουν σ έναν κόσμο γεμάτο χαρούμενες ιστορίες, ξεκαρδιστικές περιπέτειες, ατέλειωτες κατεργαριές και θεότρελες γκάφες.

ΕΠΕΙΣΟΔΙΑ:
ΛΟΛΑ Η ΞΕΡΟΛΑ
ΑΜΕΛΙΑ Η ΤΕΛΕΙΑ
ΤΡΥΦΩΝΑΣ Ο ΣΥΦΟΥΝΑΣ
ΜΙΝΩΑΣ Ο ΣΟΥΠΕΡ ΗΡΩΑΣ
ΑΡΕΤΗ ΑΥΤΑΡΧΙΚΗ
ΕΥΤΥΧΗΣ Ο ΞΥΝΥΧΤΗΣ
ΜΑΡΑ Η ΜΑΡΤΥΡΙΑΡΑ
ΜΑΤΘΑΙΟΣ Ο ΠΕΙΝΑΛΕΟΣ
ΣΑΡΑ Η ΞΕΧΑΣΙΑΡΑ
ΑΡΗΣ Ο ΒΡΩΜΙΑΡΗΣ
ΣΑΛΛΥ Η ΜΕΓΑΛΗ
ΚΟΚΟΣ Ο ΕΞΥΠΗΡΕΤΙΚΟΣ
ΑΡΙΣΤΕΙΔΗΣ Ο ΑΡΓΟΠΟΡΙΔΗΣ

 
 

Format : AVI
Format/Info : Audio Video Interleave
File size : 34.3 MiB
Duration : 4mn 20s
Overall bit rate : 1 106 Kbps
Writing library : MPlayer

Video
ID : 0
Format : MPEG-4 Visual
Format profile : Advanced Simple@L5
Format settings, BVOP : 1
Format settings, QPel : No
Format settings, GMC : No warppoints
Format settings, Matrix : Default (H.263)
Muxing mode : Packed bitstream
Codec ID : XVID
Codec ID/Hint : XviD
Duration : 4mn 20s
Bit rate : 908 Kbps
Width : 720 pixels
Height : 544 pixels
Display aspect ratio : 4:3
Frame rate : 25.000 fps
Color space : YUV
Chroma subsampling : 4:2:0
Bit depth : 8 bits
Scan type : Progressive
Compression mode : Lossy
Bits/(Pixel*Frame) : 0.093
Stream size : 28.2 MiB (82%)
Writing library : XviD 1.2.1 (UTC 2008-12-04)

Audio
ID : 1
Format : MPEG Audio
Format version : Version 1
Format profile : Layer 3
Codec ID : 55
Codec ID/Hint : MP3
Duration : 4mn 20s
Bit rate mode : Constant
Bit rate : 192 Kbps
Channel(s) : 2 channels
Sampling rate : 44.1 KHz
Compression mode : Lossy
Stream size : 5.95 MiB (17%)
Alignment : Split accross interleaves
Interleave, duration : 500 ms (12.50 video frames)
Interleave, preload duration : 500 ms






Mikra.Teratakia.rar

ή

http://depositfiles.com/files/w7coiyno6

ή

http://www.netload.in/datei3LuRWZqnlp/Mikra.Teratakia.rar.htm

Pass: thelwseires
Κατηγορία: ΑΛΛΑ ΚΑΝΑΛΙΑ (ΔΙΑΦΟΡΑ) |
Only registered users can add comments.
[ Registration | Login ]

Σύνδεση / Εγγραφή

Login:
Password:

Φιλικές Σελίδες

Αναζήτηση Σελίδας

Αναζήτηση Μέσω Google

EZ Archive