Sunday - Κυριακή, 15 December 2019, 11:08
Καλωσόρισες Guest | RSS

EZAccess Ελληνική Τηλεόραση

Κεντρική Σελίδα » 2014 » March - Μάρτιος » 21 » ΜΠΑΡΜΠΙ Η ΠΡΙΚΙΠΙΣΣΑ ΤΩΝ ΜΑΡΓΑΡΙΤΑΡΙΩΝ (2014) «ΜΕΤΑΓΛΩΤΤΙΣΜΕΝΟ ΣΤΑ ΕΛΛΗΝΙΚΑ» - BARBIE THE PEARL PRINCESS (2014) 1080p BLURAY «GREEK AUDIO»
ΜΠΑΡΜΠΙ Η ΠΡΙΚΙΠΙΣΣΑ ΤΩΝ ΜΑΡΓΑΡΙΤΑΡΙΩΝ (2014) «ΜΕΤΑΓΛΩΤΤΙΣΜΕΝΟ ΣΤΑ ΕΛΛΗΝΙΚΑ» - BARBIE THE PEARL PRINCESS (2014) 1080p BLURAY «GREEK AUDIO»
ΜΠΑΡΜΠΙ Η ΠΡΙΚΙΠΙΣΣΑ ΤΩΝ ΜΑΡΓΑΡΙΤΑΡΙΩΝ (2014) «ΜΕΤΑΓΛΩΤΤΙΣΜΕΝΟ ΣΤΑ ΕΛΛΗΝΙΚΑ» - BARBIE THE PEARL PRINCESS (2014) 1080p BLURAY «GREEK AUDIO»

Βarbie Η Πριγκίπισσα των Μαργαριταριών [2013] «ΜΕΤΑΓΛΩΤΤΙΣΜΕΝΟ ΣΤΑ ΕΛΛΗΝΙΚΑ» - Barbie The Pearl Princess [2014] 1080p BluRay [Greek Audio]

Barbie: The Pearl Princess Παιδική ταινία κινουμένων σχεδίων αμερικανικής παραγωγής  (2013 - 2014) του Σκηνοθέτη Τέρι Κλάσεν

Η Barbie συναντά την «Μικρή Γοργόνα» σε μια υποβρύχια ταινία/συμφορά που φιλοδοξεί να παρασύρει ονειροπαρμένες κορασίδες στον βυθό μιας ολότελα πλαστικής αθωότητας.

Υπόθεση
    Στην 4η ταινία της ως γοργόνα και στην 28η ταινία της καριέρας της, η Barbie πρωταγωνιστεί σε μία ιστορία για τη φιλία με πολύ χιούμορ, μελωδικά τραγούδια & παιχνίδια στυλ & γοητείας.

Σενάριο
    Η Barbie στη νέα της ταινία πρωταγωνιστεί ως Λούμινα, μια γοργόνα που ονειρεύεται να γίνει πριγκίπισσα. Με τη μυστική της δύναμη, μπορεί να κάνει τα μαργαριτάρια να χορεύουν και να λαμπυρίζουν. Η Λούμινα και ο καλύτερός της φίλος, Κούντα, ένας ροζ ιππόκαμπος, θα ζήσουν μια απίστευτη περιπέτεια που θα τους οδηγήσει σε ένα μαγευτικό θαλάσσιο βασίλειο. Εκεί, η Λούμινα θα χρησιμοποιήσει τη μαγική της δύναμη για να βοηθήσει τους καινούριους της φίλους να προετοιμαστούν για τον Βασιλικό Χορό. Η δύναμή της όμως κρύβει μυστικά που θα την οδηγήσουν στο αληθινό της πεπρωμένο.

Δανείζουν τις φωνές τους στα Ελληνικα οι:
Σία Κοσκινά, Φοίβος Ριμένας, Δημήτρης Πακσόγλου, Αφροδίτη Αντωνάκη, Γιώργος Ματαράγκας, Στεφανία Χούγια, Άντρια Ράπτη, Χρήστος Συριώτης,Στεφανία Φιλιάδη, Μαρία Πλακίδη, Δημήτρης Γαλάνης, Ανδρέας Ρήγας, Χαρά Ζησιμάτου, Στέλιος Ψαρουδάκης, Ινώ Στεφανή, Δημήτρης Δημόπουλος

Trivia
    Η γλυκιά πρωταγωνίστρια αφήνει όχι μόνο τις καλύτερες εντυπώσεις, αλλά και ομορφαίνει ό,τι βρεθεί στο διάβα της, καθώς επιστρατεύει τις μαγικές της ιδιότητες για να χαρίσει απίθανες κομμώσεις και εμφανίσεις στις αγαπημένες της φίλες της. Με φόντο τον ωκεανό και τα απίθανα βασίλεια του, και συνταξιδιώτες διασκεδαστικούς χαρακτήρες, η νέα ταινία της Barbie υπόσχεται μια απολαυστική και συναρπαστική περιπέτεια. Για μια ακόμα φορά η διάσημη ηρωίδα θα μαγέψει με την αισιοδοξία της, τις φαντασμαγορικές της περιπέτειες και την ομορφιά που πηγάζει κυρίως μέσα από την καρδιά της!

Καταλληλότητα:
Κατάλληλη

Κατηγορίες:
Κινούμενα Σχέδια, Οικογενειακή, Παιδική

ΜΠΑΡΜΠΙ Η ΠΡΙΚΙΠΙΣΣΑ ΤΩΝ ΜΑΡΓΑΡΙΤΑΡΙΩΝ (2014) «ΜΕΤΑΓΛΩΤΤΙΣΜΕΝΟ ΣΤΑ ΕΛΛΗΝΙΚΑ» - BARBIE THE PEARL PRINCESS (2014) 1080p BLURAY «GREEK AUDIO» CosmoLeech.com & NMS-TV.com
ΜΠΑΡΜΠΙ Η ΠΡΙΚΙΠΙΣΣΑ ΤΩΝ ΜΑΡΓΑΡΙΤΑΡΙΩΝ (2014) «ΜΕΤΑΓΛΩΤΤΙΣΜΕΝΟ ΣΤΑ ΕΛΛΗΝΙΚΑ» - BARBIE THE PEARL PRINCESS (2014) 1080p BLURAY «GREEK AUDIO» CosmoLeech.com & NMS-TV.com
ΜΠΑΡΜΠΙ Η ΠΡΙΚΙΠΙΣΣΑ ΤΩΝ ΜΑΡΓΑΡΙΤΑΡΙΩΝ (2014) «ΜΕΤΑΓΛΩΤΤΙΣΜΕΝΟ ΣΤΑ ΕΛΛΗΝΙΚΑ» - BARBIE THE PEARL PRINCESS (2014) 1080p BLURAY «GREEK AUDIO» CosmoLeech.com & NMS-TV.com
ΜΠΑΡΜΠΙ Η ΠΡΙΚΙΠΙΣΣΑ ΤΩΝ ΜΑΡΓΑΡΙΤΑΡΙΩΝ (2014) «ΜΕΤΑΓΛΩΤΤΙΣΜΕΝΟ ΣΤΑ ΕΛΛΗΝΙΚΑ» - BARBIE THE PEARL PRINCESS (2014) 1080p BLURAY «GREEK AUDIO» CosmoLeech.com & NMS-TV.com
ΜΠΑΡΜΠΙ Η ΠΡΙΚΙΠΙΣΣΑ ΤΩΝ ΜΑΡΓΑΡΙΤΑΡΙΩΝ (2014) «ΜΕΤΑΓΛΩΤΤΙΣΜΕΝΟ ΣΤΑ ΕΛΛΗΝΙΚΑ» - BARBIE THE PEARL PRINCESS (2014) 1080p BLURAY «GREEK AUDIO» CosmoLeech.com & NMS-TV.com
ΜΠΑΡΜΠΙ Η ΠΡΙΚΙΠΙΣΣΑ ΤΩΝ ΜΑΡΓΑΡΙΤΑΡΙΩΝ (2014) «ΜΕΤΑΓΛΩΤΤΙΣΜΕΝΟ ΣΤΑ ΕΛΛΗΝΙΚΑ» - BARBIE THE PEARL PRINCESS (2014) 1080p BLURAY «GREEK AUDIO» CosmoLeech.com & NMS-TV.com
ΜΠΑΡΜΠΙ Η ΠΡΙΚΙΠΙΣΣΑ ΤΩΝ ΜΑΡΓΑΡΙΤΑΡΙΩΝ (2014) «ΜΕΤΑΓΛΩΤΤΙΣΜΕΝΟ ΣΤΑ ΕΛΛΗΝΙΚΑ» - BARBIE THE PEARL PRINCESS (2014) 1080p BLURAY «GREEK AUDIO» CosmoLeech.com & NMS-TV.com

Τεχνικά Χαρακτηριστικά:
General
Format : MPEG-4
Format profile : Base Media
Codec ID : isom
File size : 2.29 GiB
Duration : 1h 13mn
Overall bit rate mode : Variable
Overall bit rate : 4 454 Kbps
Encoded date : UTC 2014-03-20 22:23:54
Tagged date : UTC 2014-03-20 22:23:54

Video
ID : 1
Format : AVC
Format/Info : Advanced Video Codec
Format profile : High@L4.0
Format settings, CABAC : Yes
Format settings, ReFrames : 4 frames
Codec ID : avc1
Codec ID/Info : Advanced Video Coding
Duration : 1h 13mn
Bit rate : 4 000 Kbps
Maximum bit rate : 17.9 Mbps
Width : 1 920 pixels
Height : 1 080 pixels
Display aspect ratio : 16:9
Frame rate mode : Constant
Frame rate : 23.976 fps
Color space : YUV
Chroma subsampling : 4:2:0
Bit depth : 8 bits
Scan type : Progressive
Bits/(Pixel*Frame) : 0.080
Stream size : 2.05 GiB (90%)
Title : ETRG
Writing library : x264 core 140 r2377 1ca7bb9
Encoded date : UTC 2014-03-20 22:23:54
Tagged date : UTC 2014-03-20 22:24:56

Audio
ID : 2
Format : AAC
Format/Info : Advanced Audio Codec
Format profile : LC
Codec ID : 40
Duration : 1h 13mn
Bit rate mode : Variable
Bit rate : 456 Kbps
Maximum bit rate : 507 Kbps
Channel(s) : 6 channels
Channel positions : Front: L C R, Side: L R, LFE
Sampling rate : 48.0 KHz
Compression mode : Lossy
Stream size : 240 MiB (10%)
Title : ETRG
Language : Greek
Encoded date : UTC 2014-03-20 21:52:16
Tagged date : UTC 2014-03-20 22:24:56

Κατεβάστε εδώ:
Available to users only
Κατηγορία: ΑΛΛΑ ΚΑΝΑΛΙΑ (ΔΙΑΦΟΡΑ) |
Only registered users can add comments.
[ Registration | Login ]

Σύνδεση / Εγγραφή

Login:
Password:

Φιλικές Σελίδες

Αναζήτηση Σελίδας

Αναζήτηση Μέσω Google

EZ Archive