Thursday - Πέμπτη, 13 August 2020, 22:41
Καλωσόρισες Guest | RSS

EZAccess Ελληνική Τηλεόραση

Κεντρική Σελίδα » 2014 » January - Ιανουάριος » 30 » NATIONAL GEOGRAPHIC - ΕΙΝΑΙ ΑΛΗΘΙΝΟ; - ΖΩΑ-ΠΡΟΦΗΤΕΣ «ΕΝΣΩΜΑΤΩΜΕΝΟΙ ΕΛΛΗΝΙΚΟΙ ΥΠΟΤΙΤΛΟΙ»
NATIONAL GEOGRAPHIC - ΕΙΝΑΙ ΑΛΗΘΙΝΟ; - ΖΩΑ-ΠΡΟΦΗΤΕΣ «ΕΝΣΩΜΑΤΩΜΕΝΟΙ ΕΛΛΗΝΙΚΟΙ ΥΠΟΤΙΤΛΟΙ»


NATIONAL GEOGRAPHIC - ΕΙΝΑΙ ΑΛΗΘΙΝΟ; - ΖΩΑ-ΠΡΟΦΗΤΕΣ «ΕΝΣΩΜΑΤΩΜΕΝΟΙ ΕΛΛΗΝΙΚΟΙ ΥΠΟΤΙΤΛΟΙ»


 Μπορούν τα ζώα να προβλέπουν σεισμούς, τσουνάμι και άλλες φυσικές καταστροφές; Εκατομμύρια άνθρωποι αναφέρουν παράξενες συμπεριφορές των ζώων λίγα λεπτά έως και εβδομάδες πριν από μια επικείμενη καταστροφή. Αν αληθεύει, πώς αυτά τα πλάσματα το καταφέρνουν; Μήπως διαθέτουν ιδιαίτερες ικανότητες ενόρασης; Θα ερευνήσουμε το πρόσφατο τσουνάμι που συγκλόνισε τη ΝΑ Ασία και θα ακούσουμε ιστορίες για ζώα που τράπηκαν σε ομαδική φυγή προς τα ορεινά πριν τα νερά της πλημμύρας ισοπεδώσουν τα πάντα. Επίσης, θα συναντήσουμε τον Ρούπερτ Σέλντρεϊκ, υπέρμαχο των ζώων-προφητών και ένα φλύαρο αφρικανικό παπαγάλο, του οποίου ο ιδιοκτήτης υποστηρίζει ότι έχει τη δύναμη να προβλέπει.

Έτος παραγωγής: 2007
Σενάριο: DANA KEMP & ELEANOR GRANT
Διάρκεια: 47 λεπτά
Είδος ταινίας: ντοκιμαντέρ




ΤΕΧΝΙΚΑ ΧΑΡΑΚΤΗΡΙΣΤΙΚΑ
Format : AVI
Overall bit rate : 2 828 Kbps

Video
Format : MPEG-4 Visual
Codec ID : MP43
Codec ID/Info : Microsoft MPEG-4 v3 (pre-standard)
Bit rate : 2 496 Kbps
Width : 720 pixels
Height : 576 pixels
Display aspect ratio : 4:3
Frame rate : 25.000 fps
Standard : PAL
Compression mode : Lossy
Bits/(Pixel*Frame) : 0.241
Stream size : 851 MiB (88%)

Audio
Mode : Joint stereo
Codec ID : 55
Codec ID/Hint : MP3
Bit rate mode : Constant
Bit rate : 320 Kbps
Channel(s) : 2 channels
Sampling rate : 48.0 KHz
Compression mode : Lossy
Stream size : 109 MiB (11%)
Alignment : Aligned on interleaves
Interleave, duration : 24 ms (0.60 video frame)
Interleave, preload duration : 48 ms
Writing library : LAME3.98.2

Κατεβάστε εδώ:
zwa-profhtes.avi.html

Κατηγορία: ΑΛΛΑ ΚΑΝΑΛΙΑ (ΔΙΑΦΟΡΑ) |
Only registered users can add comments.
[ Registration | Login ]

Σύνδεση / Εγγραφή

Login:
Password:

Φιλικές Σελίδες

Αναζήτηση Σελίδας

Αναζήτηση Μέσω Google

EZ Archive