Wednesday - Τετάρτη, 21 April 2021, 09:40
Καλωσόρισες Guest | RSS

EZAccess Ελληνική Τηλεόραση

Κεντρική Σελίδα » 2013 » March - Μάρτιος » 4 » NINETEEN EIGHTY-FOUR (1984) - Michael Radford «ΕΛΛΗΝΙΚΟΙ ΥΠΟΤΙΤΛΟΙ»
NINETEEN EIGHTY-FOUR (1984) - Michael Radford «ΕΛΛΗΝΙΚΟΙ ΥΠΟΤΙΤΛΟΙ»


NINETEEN EIGHTY-FOUR (1984) - Michael Radford 720p HDTV x264-CtrlHD «ΕΛΛΗΝΙΚΟΙ ΥΠΟΤΙΤΛΟΙ»


Κριτική:
Μετά τον Ατομικό Πόλεμο, ο κόσμος διαιρείται σε τρεις πολιτείες. Το Λονδίνο είναι η πρωτεύουσα της Ωκεανίας και κυβερνείται από μια ομάδα που έχει τον απόλυτο έλεγχο σε όλους τους πολίτες. Ο Winston Smith είναι ένας γραφειοκράτης που ερωτεύεται τη Julia και προσπαθεί να κάνει την επανάσταση του…




Κινηματογραφική μεταφορά του "1984" του Τζόρτζ Όργουελ. Κεντρικός ήρωας ένας κυβερνητικός υπάλληλος και μέλος του εξωτερικού κόμματος της Ωκεανίας, μιας από τις τρεις χώρες που είναι χωρισμένος πλέον ο πλανήτης (oι άλλες δύο είναι η Ευρασία και η Αν. Ασία). Τα γεγονότα διαδραματίζονται το έτος 1984 (από εκεί έχει πάρει και το όνομα του το βιβλίο) μια χρονολογία μελλοντική αυτής που ο Όργουελ το έγραψε. 

Οι κοινωνικές τάξεις στην Ωκεανία είναι τα μέλη του εσωτερικού κόμματος (που ασκούν την διοίκηση της χώρας), τα μέλη του εξωτερικού κόμματος (οι κρατικοί υπάλληλοι) και οι προλετάριοι (που είναι απλά τα εργατικά χέρια της χώρας). Το κόμμα ασκεί την εξουσία έχοντας καταλύσει κάθε έννοια ελευθερίας. Όλοι παρακολουθούνται, ακόμα και μέσα στα σπίτια τους, με την βοήθεια τηλεοθονών. Όλα και όλοι ελέγχονται από τον Μεγάλο Αδερφό. Όλα οφείλονται και πηγάζουν από τον Μεγάλο Αδερφό. Ένα πρόσωπο που χρησιμοποιείται για την προσωποποίηση του κόμματος. Η ελευθερία έκφρασης αλλά ακόμα και σκέψης έχει ποινικοποιηθεί.




Η αυταρχική πολιτεία της Ωκεανίας βρίσκεται σε διαρκή πόλεμο είτε με την Ευρασία είτε με την Ανατολασία. Ο διαρκής αυτός πόλεμος δικαιολογεί όλες τις αυταρχικές ενέργειες του προγράμματος του Μεγάλου Αδελφού, τη λογοκρισία, τη μυστική αστυνομία κλπ. Με άλλα λόγια είναι εξαιρετικά βολικός...

Το βιβλίο, εμπνευσμένο από τη σταλινική δεσποτεία, μισό αιώνα μετά την συγγραφή του, δυστυχώς, τείνει να γίνει προφητικό. Με αφορμή την παγκόσμια τρομοκρατία και την ασφάλεια -"Η είσαστε μαζί μας η είσαστε με τους τρομοκράτες"-, βλέπουμε καθημερινά να καταργούνται ατομικές ελευθερίες...

Μια ταινία που αντικατοπτρίζει τις ανησυχίες του Orwell. Ευκρινής και σταθερή η αφήγηση σύμφωνα με την αντίληψη του Βρετανού συγγραφέα. Τα πολιτικά μηνύματα της τότε εποχής του ψυχρού πολέμου και της διάψευσης του κομμουνιστικού ονείρου αγγίζουν την συνείδηση του θεατή. Πρέπει να επισημάνουμε και τις προεκτάσεις του έργου στην σύγχρονη εποχή κατά την οποίαν, ναι μεν το σοσιαλοκομμουνιστικό ιδεώδες έχει καταρρεύσει, η πορεία όμως και η εξέλιξη του σημερινού ανθρώπου ανάμεσα από απάνθρωπα ημιολοκληρωτικά πρότυπα εξακολουθεί να απειλεί το άτομο μέσα στο κοινωνικό σύνολο.

 


θα θέλαμε να επισημάνουμε μια αδυναμία. Η ανάκριση του Σμιθ ξεφεύγει με αρνητικό τρόπο από τον Όργουελ, καθόσον ο βασανισμός είναι χαλαρός σε σχέση με το μυθιστόρημα και ξεφεύγει από τον αντικειμενικό του στόχο που συνιστάται στην επάλειψη του ατόμου με τον θάνατο της ψυχής του.

info:

Είδος : Δράμα, Επ. Φαντασίας
Σκηνοθεσία: Michael Radford
Σενάριο: George Orwell (novel), Michael Radford
Πρωταγωνιστούν :  John Hurt, Richard Burton, Suzanna Hamilton, Cyril Cusack



Complete name                            : H:\Nineteen.Eighty-Four.1984.720p.HDTV.x264-CtrlHD
Format                                   : Matroska
Format version                           : Version 2
File size                                : 4.25 GiB
Duration                                 : 1h 50mn
Overall bit rate                         : 5 500 Kbps
Encoded date                             : UTC 2012-11-10 18:07:25
Writing application                      : mkvmerge v3.4.0 ('Rapunzel') built on May 15 2010 09:38:20
Writing library                          : libebml v0.8.0 + libmatroska v0.9.0

Video
ID                                       : 1
Format                                   : AVC
Format/Info                              : Advanced Video Codec
Format profile                           : High@L4.1
Format settings, CABAC                   : Yes
Format settings, ReFrames                : 9 frames
Codec ID                                 : V_MPEG4/ISO/AVC
Duration                                 : 1h 50mn
Bit rate                                 : 5 275 Kbps
Width                                    : 1 280 pixels
Height                                   : 694 pixels
Display aspect ratio                     : 16:9
Frame rate                               : 23.976 fps
Color space                              : YUV
Chroma subsampling                       : 4:2:0
Bit depth                                : 8 bits
Scan type                                : Progressive
Bits/(Pixel*Frame)                       : 0.248
Stream size                              : 3.99 GiB (94%)
Title                                    : Nineteen Eighty-Four (1984)
Writing library                          : x264 core 128 r2216kMod 198a7ea
Encoding settings                        : cabac=1 / ref=9 / deblock=1:-3:-3 / analyse=0x3:0x133 / me=umh / subme=11 / psy=1 / fade_compensate=0.00 / psy_rd=1.10:0.05 / mixed_ref=1 / me_range=48 / chroma_me=1 / trellis=2 / 8x8dct=1 / cqm=0 / deadzone=21,11 / fast_pskip=0 / chroma_qp_offset=-3 / threads=6 / lookahead_threads=1 / sliced_threads=0 / nr=0 / decimate=0 / interlaced=0 / bluray_compat=0 / constrained_intra=0 / bframes=7 / b_pyramid=2 / b_adapt=2 / b_bias=0 / direct=3 / weightb=1 / open_gop=0 / weightp=2 / keyint=250 / keyint_min=23 / scenecut=40 / intra_refresh=0 / rc=2pass / mbtree=0 / bitrate=5275 / ratetol=1.0 / qcomp=0.70 / qpmin=10 / qpmax=51 / qpstep=4 / cplxblur=20.0 / qblur=0.5 / ip_ratio=1.30 / pb_ratio=1.20 / aq=1:0.80
Language                                 : English



Audio
ID                                       : 2
Format                                   : AC-3
Format/Info                              : Audio Coding 3
Mode extension                           : CM (complete main)
Codec ID                                 : A_AC3
Duration                                 : 1h 50mn
Bit rate mode                            : Constant
Bit rate                                 : 224 Kbps
Channel(s)                               : 2 channels
Channel positions                        : Front: L R
Sampling rate                            : 48.0 KHz
Bit depth                                : 16 bits
Compression mode                         : Lossy
Delay relative to video                  : 26ms
Stream size                              : 177 MiB (4%)
Language                                 : English

Text #1
ID                                       : 3
Format                                   : UTF-8
Codec ID                                 : S_TEXT/UTF8
Codec ID/Info                            : UTF-8 Plain Text
Language                                 : English

Text #2
ID                                       : 4
Format                                   : UTF-8
Codec ID                                 : S_TEXT/UTF8
Codec ID/Info                            : UTF-8 Plain Text
Language                                 : Czech

Text #3
ID                                       : 5
Format                                   : UTF-8
Codec ID                                 : S_TEXT/UTF8
Codec ID/Info                            : UTF-8 Plain Text
Language                                 : Greek

Text #4
ID                                       : 6
Format                                   : UTF-8
Codec ID                                 : S_TEXT/UTF8
Codec ID/Info                            : UTF-8 Plain Text
Language                                 : Hungarian

Text #5
ID                                       : 7
Format                                   : UTF-8
Codec ID                                 : S_TEXT/UTF8
Codec ID/Info                            : UTF-8 Plain Text
Language                                 : Portuguese

Text #6
ID                                       : 8
Format                                   : UTF-8
Codec ID                                 : S_TEXT/UTF8
Codec ID/Info                            : UTF-8 Plain Text
Language                                 : Swedish


Στο rar περιέχονται ελληνικοί υπότιτλοι καθώς επίσης και για άλλες πέντε γλώσσες. Οι ελληνικοί υπότιτλοι περιέχονται και σε ξεχωριστό αρχείο σε μορφή srt.



http://turbobit.net/qvug61tui30d/1984.part1.rar.html
http://turbobit.net/51opyo0j7ixd/1984.part2.rar.html

Κωδικός αποσυμπίεσης:
thelwseires

Κατηγορία: ΑΛΛΑ ΚΑΝΑΛΙΑ (ΔΙΑΦΟΡΑ) |
Only registered users can add comments.
[ Registration | Login ]

Σύνδεση / Εγγραφή

Login:
Password:

Φιλικές Σελίδες

Αναζήτηση Σελίδας

Αναζήτηση Μέσω Google

EZ Archive