Friday - Παρασκευή, 23 April 2021, 06:50
Καλωσόρισες Guest | RSS

EZAccess Ελληνική Τηλεόραση

Κεντρική Σελίδα » 2013 » March - Μάρτιος » 18 » ΝΤΟΡΑ Η ΜΙΚΡΗ ΕΞΕΡΕΥΝΗΤΡΙΑ: Η ΝΤΟΡΑ ΣΩΖΕΙ ΤΟ ΓΟΡΓΟΝΟΒΑΣΙΛΕΙΟ «GREEK AUDIO» «ΜΕΤΑΓΛΩΤΤΙΣΜΕΝΟ ΣΤΑ ΕΛΛΗΝΙΚΑ»
ΝΤΟΡΑ Η ΜΙΚΡΗ ΕΞΕΡΕΥΝΗΤΡΙΑ: Η ΝΤΟΡΑ ΣΩΖΕΙ ΤΟ ΓΟΡΓΟΝΟΒΑΣΙΛΕΙΟ «GREEK AUDIO» «ΜΕΤΑΓΛΩΤΤΙΣΜΕΝΟ ΣΤΑ ΕΛΛΗΝΙΚΑ»


ΝΤΟΡΑ Η ΜΙΚΡΗ ΕΞΕΡΕΥΝΗΤΡΙΑ: Η ΝΤΟΡΑ ΣΩΖΕΙ ΤΟ  ΓΟΡΓΟΝΟΒΑΣΙΛΕΙΟ «GREEK AUDIO» «ΜΕΤΑΓΛΩΤΤΙΣΜΕΝΟ ΣΤΑ ΕΛΛΗΝΙΚΑ»


"Dora the Explorer" Dora Saves the Mermaids

Σε αυτό το διπλής διάρκειας επεισόδιο, η  Ντόρα χρειάζεται τη βοήθειά σας για να σώσει το Γοργονοβασίλειο, φέρνοντας ένα μαγικό στέμμα πίσω στη γοργόνα Mαριάνα ... και όπως επίσης να γίνει και η ίδια γοργόνα!!
Στη συνέχεια, βοηθήστε την Ντόρα σε δύο νέες περιπέτειες στον ωκεανό για να βοηθήσει ένα μωρό ψάρι και τα γουρουνάκια πειρατές!

Screenshots:

DORA SAVES THE MERMAIDS-Η ΝΤΟΡΑ ΣΩΖΕΙ ΤΙΣ ΓΟΡΓΟΝΕΣ



Γενικά χαρακτηριστικά:

Format                                   : AVI
Format/Info                              : Audio Video Interleave
File size                                : 949 MiB
Duration                                 : 44mn 49s
Overall bit rate                         : 2 961 Kbps
Writing application                      : VirtualDubMod 1.5.10.2 (build 2542/release)
Writing library                          : VirtualDub build 32842/release


Video
ID                                       : 0
Format                                   : MPEG-4 Visual
Format profile                           : Advanced Simple@L5
Format settings, BVOP                    : 1
Format settings, QPel                    : No
Format settings, GMC                     : No warppoints
Format settings, Matrix                  : Default (H.263)
Muxing mode                              : Packed bitstream
Codec ID                                 : XVID
Codec ID/Hint                            : XviD
Duration                                 : 44mn 49s
Bit rate                                 : 2 760 Kbps
Width                                    : 720 pixels
Height                                   : 544 pixels
Display aspect ratio                     : 4:3
Frame rate                               : 25.000 fps
Color space                              : YUV
Chroma subsampling                       : 4:2:0
Bit depth                                : 8 bits
Scan type                                : Progressive
Compression mode                         : Lossy
Bits/(Pixel*Frame)                       : 0.282
Stream size                              : 885 MiB (93%)
Writing library                          : XviD 1.2.1 (UTC 2008-12-04)



Audio
ID                                       : 1
Format                                   : AC-3
Format/Info                              : Audio Coding 3
Mode extension                           : CM (complete main)
Format settings, Endianness              : Big
Codec ID                                 : 2000
Duration                                 : 44mn 49s
Bit rate mode                            : Constant
Bit rate                                 : 192 Kbps
Channel(s)                               : 2 channels
Channel positions                        : Front: L R
Sampling rate                            : 48.0 KHz
Bit depth                                : 16 bits
Compression mode                         : Lossy
Stream size                              : 61.6 MiB (6%)
Alignment                                : Split accross interleaves
Interleave, duration                     : 40 ms (1.00 video frame)
Interleave, preload duration             : 500 ms






E3ereunhtria-GORGONES.avi

ή

E3ereunhtria-GORGONES.avi
Κατηγορία: Greek TV (STAR) |
Only registered users can add comments.
[ Registration | Login ]

Σύνδεση / Εγγραφή

Login:
Password:

Φιλικές Σελίδες

Αναζήτηση Σελίδας

Αναζήτηση Μέσω Google

EZ Archive