Monday - Δευτέρα, 12 April 2021, 14:15
Καλωσόρισες Guest | RSS

EZAccess Ελληνική Τηλεόραση

Κεντρική Σελίδα » 2012 » October - Οκτώβριος » 13 » Ο ΒΑΣΙΛΙΑΣ ΚΑΙ ΤΟ ΠΟΥΛΙ (1980) - The King and the Mockingbird - Le Roi et l'Oiseau «ΜΕΤΑΓΛΩΤΤΙΣΜΕΝΟ ΣΤΑ ΕΛΛΗΝΙΚΑ»
Ο ΒΑΣΙΛΙΑΣ ΚΑΙ ΤΟ ΠΟΥΛΙ (1980) - The King and the Mockingbird - Le Roi et l'Oiseau «ΜΕΤΑΓΛΩΤΤΙΣΜΕΝΟ ΣΤΑ ΕΛΛΗΝΙΚΑ»


Ο ΒΑΣΙΛΙΑΣ ΚΑΙ ΤΟ ΠΟΥΛΙ (1980) - The King and the Mockingbird - Le Roi et l'Oiseau «ΜΕΤΑΓΛΩΤΤΙΣΜΕΝΟ ΣΤΑ ΕΛΛΗΝΙΚΑ»

Μια πολύχρωμη παιδική εικόνα
Ο Βασιλέας Κάρολος ο 5+3=8+8=16, διοικεί το αχανές βασίλειο της Ταχυκαρδίας. Μισεί όλους τους υπηκόους του και αυτοί τον μισούν επίσης. Ο χρόνος του περνά ράθυμα μέσα από το κυνήγι φυλακισμένων πουλιών, το άνοιγμα καταπακτών, ώστε να εξαφανίζει όποιον τον ενοχλεί, την ατελείωτη κραυγή διαταγών και προσταγμάτων. Ο βασιλιάς προτιμά να θαυμάζει τον εαυτό του σε κάποιο από τα χιλιάδες πορτρέτα που κοσμούν τους τοίχους του παλατιού. Οι καθρέφτες δεν είναι καλοί σύμμαχοι, μιας και το παρουσιαστικό του εικονογραφεί το χαρακτήρα του. Κοντός, πλαδαρός και χαρακτηριστικά άσχημος κοιτά τον κόσμο που εξουσιάζει με δύο αλλήθωρα μάτια. Και ενώ όλοι απλώνουν μπροστά του ένα έντρομο χειροκρότημα μεγαλείου και θαυμασμού, ένα πουλί (το οποίο φυσικά καπνίζει πούρο και φοράει καπέλο) δεν διστάζει να πάρει την εκδίκησή του για τα φονευμένα μέλη της οικογένειας του. Τον λοιδορεί, τον ειρωνεύεται και τον εξευτελίζει μπροστά σε όλους τους δειλούς υπηκόους του, κοιτάζοντάς τον από ψηλά χωρίς φόβο.
Εξοργισμένος, ο βασιλιάς θα γυρίσει στα διαμερίσματά του. Θα αναζητήσει την ηρεμία μπροστά σε έναν πίνακα με τον οποίο είναι ερωτευμένος. Το πορτρέτο μιας βοσκοπούλας. Δίπλα του κρέμεται ο πίνακας ενός νεαρού καπνοδοχοκαθαριστή. Οι δύο απεικονίσεις είναι ερωτευμένες. Τη νύχτα και ενώ ο βασιλιάς κοιμάται οι δύο φιγούρες ξυπνούν, δραπετεύουν από τις δύο διαστάσεις και εγκαταλείπουν το διαμέρισμα. Μαζί τους, ξυπνά και ένα από τα πορτρέτα του βασιλιά. Το είδωλο, θα αντικαταστήσει τον πραγματικό Κάρολο και θα σημάνει συναγερμό αναζητώντας τους δύο δραπέτες.
Το ζευγάρι περιπλανιέται κυνηγημένο προσπαθώντας να διαφύγει. Στην προσπάθειά του έχει σύμμαχο το πουλί με το καπέλο που τους βοηθά σε μια σειρά καταστάσεων. Τελικά συλλαμβάνονται με τη βοήθεια της αστυνομίας, των χαφιέδων και ενός τεράστιου μηχανοκίνητου ρομπότ. Η βοσκοπούλα εξαναγκάζεται να παντρευτεί τον βασιλιά, ο καπνοδοχοκαθαριστής και το πουλί πετιούνται στα λιοντάρια. Όμως οι δύο καταδικασμένοι συμμαχούν με τα φυλακισμένα ζώα, εισβάλλουν στο παλάτι και διαλύουν το γάμο. Το πουλί θέτει υπό τον έλεγχό του την ανθρωπόμορφη μηχανή, καταστρέφει το κάστρο του βασιλιά και φυσά τον ίδιο με τη βοήθεια του ρομπότ πέρα από τον ορίζοντα.



Σκίζοντας τα πορτρέτα της εξουσίας
Το φινάλε είναι ενδεικτικό της φιλοσοφίας των δημιουργών της. Το ρομπότ κάθεται σε ένα έρημο τοπίο στη στάση του στοχαστή του Ροντέν. Ξαφνικά βλέπει μπροστά του ένα ελάχιστο πουλί φυλακισμένο σε ένα κλουβί, το ελευθερώνει και μετά από μια σύντομη παύση συνθλίβει το κλουβί με την τεράστια παλάμη του.
«Το πουλί και ο βασιλιάς» τελείωσε το 1980 και σκηνοθετήθηκε από τον Πολ Γκριμότ, τακτικό συνεργάτη του Πρεβέρ. Το σενάριο αντλεί την εναρκτήρια ιδέα από την ιστορία του Χ.Κ. Άντερσεν «Η βοσκοπούλα και ο καπνοδοχοκαθαριστής» κρατώντας όμως μόνο το ελάχιστο περίγραμμα. Η ταινία, η οποία θεωρείται ως μια από τις σημαντικότερες ταινίες κινουμένων σχεδίων, καταφέρνει μια πολλαπλή σύνθεση. Στα καρέ της ενώνονται το παιδικό παραμύθι με την Μητρόπολη του Φριτς Λανγκ, αλλά και ο Σουρεαλισμός του Ντε Κίρικο και του Ιβ Τανγκί, με το τραγούδι της αριστερής όχθης του Παρισιού. Το σημαντικότερο όμως επίτευγμα της είναι πως ταυτίζει την αθωότητα των πρωταγωνιστών, των πουλιών και των ερωτευμένων (και κατ’ επέκταση των παιδιών που βλέπουν την ταινία) με μια ξεκάθαρη στάση ενάντια στην εξουσία. Μια εξουσία θλιβερή στην ακαμψία και την υστερία της, αξιολύπητη στην ασχήμια της και εξοργιστική στις πρακτικές της. Η απλότητα του μέσου έρχεται να συναντήσει το ξεκάθαρο και διαυγές του μηνύματός της περιγράφοντας την ομορφιά του χωρίς διδακτισμούς. Όπως σε τόσα ποιήματα, τραγούδια και παραμύθια ο Πρεβέρ μας περιγράφει την καθαρότητα μιας αλήθειας: Πως η ουτοπία μπορεί να οριστεί μόνο με την αθωότητα και την ειλικρίνεια ενός παιδικού βλέμματος.



Τεχνικά χαρακτηριστικά
General
Format                           : Matroska
File size                        : 961 MiB
Duration                         : 1h 29mn
Overall bit rate                 : 1 507 Kbps
Encoded date                     : UTC 2012-10-04 18:38:27
Writing application              : mkvmerge v4.7.0 ('Just Like You Imagined') built on Apr 21 2011 01:13:14
Writing library                  : libebml v1.2.0 + libmatroska v1.1.0
Video
ID                               : 4
Format                           : AVC
Format/Info                      : Advanced Video Codec
Format profile                   : Baseline@L5.1
Format settings, CABAC           : No
Format settings, ReFrames        : 1 frame
Format settings, GOP             : M=1, N=50
Muxing mode                      : Header stripping
Codec ID                         : V_MPEG4/ISO/AVC
Duration                         : 1h 29mn
Bit rate                         : 901 Kbps
Nominal bit rate                 : 1 024 Kbps
Width                            : 752 pixels
Height                           : 560 pixels
Display aspect ratio             : 4:3
Frame rate                       : 25.000 fps
Color space                      : YUV
Chroma subsampling               : 4:2:0
Bit depth                        : 8 bits
Scan type                        : Progressive
Bits/(Pixel*Frame)               : 0.086
Stream size                      : 575 MiB (60%)
Writing library                  : x264 core 57



Audio #1
ID                               : 5
Format                           : AC-3
Format/Info                      : Audio Coding 3
Mode extension                   : CM (complete main)
Muxing mode                      : Header stripping
Codec ID                         : A_AC3
Duration                         : 1h 29mn
Bit rate mode                    : Constant
Bit rate                         : 448 Kbps
Channel(s)                       : 2 channels
Channel positions                : Front: L R
Sampling rate                    : 48.0 KHz
Bit depth                        : 16 bits
Compression mode                 : Lossy
Stream size                      : 286 MiB (30%)
Language                         : French
Audio #2
ID                               : 8
Format                           : MPEG Audio
Format version                   : Version 1
Format profile                   : Layer 2
Muxing mode                      : Header stripping
Codec ID                         : A_MPEG/L2
Codec ID/Hint                    : MP2
Duration                         : 1h 29mn
Bit rate mode                    : Constant
Bit rate                         : 128 Kbps
Channel(s)                       : 2 channels
Sampling rate                    : 44.1 KHz
Compression mode                 : Lossy
Stream size                      : 81.6 MiB (8%)
Language                         : Greek



Οι ευχαριστίες στον
gautso...

http://4.bp.blogspot.com/_7wsQzULWIwo/SwALMl0nnQI/AAAAAAAACLs/Hm8u1Jqo0YY/s400/download-orig.png

O.Vasilias.Kai.To.Pouli.mkv

ή

http://depositfiles.com/files/o9smvkgcj
Κατηγορία: ΑΛΛΑ ΚΑΝΑΛΙΑ (ΔΙΑΦΟΡΑ) |
Only registered users can add comments.
[ Registration | Login ]

Σύνδεση / Εγγραφή

Login:
Password:

Φιλικές Σελίδες

Αναζήτηση Σελίδας

Αναζήτηση Μέσω Google

EZ Archive