Saturday - Σάββατο, 17 April 2021, 05:07
Καλωσόρισες Guest | RSS

EZAccess Ελληνική Τηλεόραση

Κεντρική Σελίδα » 2014 » February - Φεβρουάριος » 22 » Ο ΒΥΣΣΙΝΟΚΗΠΟΣ (1999) «ΑΝΤΟΝ ΤΣΕΧΩΒ ΚΑΙ ΜΙΧΑΛΗΣ ΚΑΚΟΓΙΑΝΝΗΣ» «ΕΛΛΗΝΙΚΟΙ ΥΠΟΤΙΤΛΟΙ» - THE CHERRY ORCHARD «GREEK SUBS»
Ο ΒΥΣΣΙΝΟΚΗΠΟΣ (1999) «ΑΝΤΟΝ ΤΣΕΧΩΒ ΚΑΙ ΜΙΧΑΛΗΣ ΚΑΚΟΓΙΑΝΝΗΣ» «ΕΛΛΗΝΙΚΟΙ ΥΠΟΤΙΤΛΟΙ» - THE CHERRY ORCHARD «GREEK SUBS»
Ο ΒΥΣΣΙΝΟΚΗΠΟΣ (1999) «ΕΛΛΗΝΙΚΟΙ ΥΠΟΤΙΤΛΟΙ» - THE CHERRY ORCHARD «GREEK SUBS»

Ο ΒΥΣΣΙΝΟΚΗΠΟΣ (1999) «ANTON CHEKHOV ΚΑΙ MICHAEL CACOYANNIS» «ΕΛΛΗΝΙΚΟΙ ΥΠΟΤΙΤΛΟΙ» - THE CHERRY ORCHARD «GREEK SUBS»

Πρεμιέρα στην Ελλάδα: Παρ 28 Ιαν 2000
Ημερομηνία κυκλοφορίας DνD: 14/05/2007
Χρώμα: Έγχρωμο
Ποιότητα: DνDR|P

Ο ΒΥΣΣΙΝΟΚΗΠΟΣ (1999) «ANTON CHEKHOV ΚΑΙ ΜΙΧΑΛΗΣ ΚΑΚΟΓΙΑΝΝΗΣ» «ΕΛΛΗΝΙΚΟΙ ΥΠΟΤΙΤΛΟΙ» - THE CHERRY ORCHARD «GREEK SUBS»

Πλοκή: Η Ranyevkaya (Charlotte Rampling) είναι μια Ρωσίδα αριστοκράτισσα που επιστρέφει στην πατρίδα της από το Παρίσι και πληφορείται ότι χάνει από χρέη το κτήμα της. Τότε ένας γαιοκτήμονας της προτείνει να πουλήσει ένα μέρος της περιουσίας της για να ξεχρεώσει, το οποίο όμως περιλαμβάνει το πιο αγαπημένο γι`αυτήν κομμάτι γης, το βυσσινόκηπο.

Ο ΒΥΣΣΙΝΟΚΗΠΟΣ (1999) «ANTON CHEKHOV ΚΑΙ ΜΙΧΑΛΗΣ ΚΑΚΟΓΙΑΝΝΗΣ» «ΕΛΛΗΝΙΚΟΙ ΥΠΟΤΙΤΛΟΙ» - THE CHERRY ORCHARD «GREEK SUBS»

    Συντελεστές:
Σκηνοθέτης: Μιχάλης Κακογιάννης (Mihalis Kakogiannis) (as Michael Cacoyannis)
Συγγραφέας: Anton Chekhov (play), Mihalis Kakogiannis (screenplay)
    Charlotte Rampling    Ηθοποιός     ....Ljubow Andrejewna Ranjewskaja     
    Alan Bates    Ηθοποιός     ....Leonid Andrejevitsj Gajev     
    Katrin Cartlidge    Ηθοποιός     ....Varya     
    Owen Teale    Ηθοποιός     ....Jermolai Aleksejevitsj Lopakin     
    Tushka Bergen    Ηθοποιός     ....Anja Ranjewskaja     
    Xander Berkeley    Ηθοποιός     ....Yepihodov     
    Gerard Butler    Ηθοποιός     ....Yasha     
    Andrew Howard    Ηθοποιός     ....Pjotr Sergevetsj Trofimov     
    Melanie Lynskey    Ηθοποιός     ....Dunyasha     
    Ian McNeice    Ηθοποιός     ....Simjeonov Pistsjik     
    Frances de la Tour    Ηθοποιός     ....Charlotte Ivanovna     
    Michael Gough    Ηθοποιός     ....Feers     
    Itzhak Finzi    Ηθοποιός     ....ξένος

Ο ΒΥΣΣΙΝΟΚΗΠΟΣ (1999) «ANTON CHEKHOV ΚΑΙ ΜΙΧΑΛΗΣ ΚΑΚΟΓΙΑΝΝΗΣ» «ΕΛΛΗΝΙΚΟΙ ΥΠΟΤΙΤΛΟΙ» - THE CHERRY ORCHARD «GREEK SUBS»

Περισσότερα για το έργο: Η Ranyevkaya (Charlotte Rampling) είναι μια Ρωσίδα αριστοκράτισσα που επιστρέφει στην πατρίδα της από το Παρίσι και πληροφορείται ότι χάνει από χρέη το κτήμα της. Τότε ένας γαιοκτήμονας της προτείνει να πουλήσει ένα μέρος της περιουσίας της για να ξεχρεώσει, το οποίο όμως περιλαμβάνει το πιο αγαπημένο γι' αυτήν κομμάτι γης, το βυσσινόκηπο.

Ο ΒΥΣΣΙΝΟΚΗΠΟΣ (1999) «ANTON CHEKHOV ΚΑΙ ΜΙΧΑΛΗΣ ΚΑΚΟΓΙΑΝΝΗΣ» «ΕΛΛΗΝΙΚΟΙ ΥΠΟΤΙΤΛΟΙ» - THE CHERRY ORCHARD «GREEK SUBS»

Ο Βυσσινόκηπος είναι θεατρικό έργο του Αντόν Τσέχωφ, που γράφτηκε το 1903. Το έργο είναι εμπνευσμένο από μια εποχή κατά την οποία ο ρωσικός λαός αν και θεωρητικά ελεύθερος, εξαιτίας της κατάργησης της δουλοπαροικίας κατά το 1861, ζούσε ακόμα στη φτώχεια και την αμάθεια. Θεωρείται μια προαναγγελία ουσιαστικά της επανάστασης του 1905 και της επανάστασης του 1917. Θεωρείται έργο στο οποίο υποδεικνύεται η αδυναμία των ανθρώπων, κυρίως των αριστοκρατών, να κατανοήσουν τις όποιες διαφοροποιήσεις αλλάζουν το κοινωνικό περιβάλλον, όπως επίσης και τον ρόλο που παίζουν αυτές οι αλλαγές στην προσωπική τους ζωή. Σε συμβολικό επίπεδο ο βυσσινόκηπος, ένα κομμάτι γης που ανήκει σε αριστοκρατική οικογένεια, όπως, και η αδυναμία της οικογένειας να τον κρατήσει υποδηλώνει τις αλλαγές της ρωσικής κοινωνίας και τα νέα κοινωνικά στρώματα που έρχονται στο προσκήνιο, εξαιτίας πολιτικών και κοινωνικών ζυμώσεων.

Ο ΒΥΣΣΙΝΟΚΗΠΟΣ (1999) «ANTON CHEKHOV ΚΑΙ ΜΙΧΑΛΗΣ ΚΑΚΟΓΙΑΝΝΗΣ» «ΕΛΛΗΝΙΚΟΙ ΥΠΟΤΙΤΛΟΙ» - THE CHERRY ORCHARD «GREEK SUBS»

General
Format                                   : Matroska
Format version                           : Version 2
File size                                : 2.13 GiB
Duration                                 : 2h 15mn
Overall bit rate                         : 2 247 Kbps
Encoded date                             : UTC 2014-02-20 21:35:25
Writing application                      : mkvmerge v6.7.0 ('Back to the Ground') 32bit built on Jan  8 2014 15:03:17
Writing library                          : libebml v1.3.0 + libmatroska v1.4.1

Ο ΒΥΣΣΙΝΟΚΗΠΟΣ (1999) «ANTON CHEKHOV ΚΑΙ ΜΙΧΑΛΗΣ ΚΑΚΟΓΙΑΝΝΗΣ» «ΕΛΛΗΝΙΚΟΙ ΥΠΟΤΙΤΛΟΙ» - THE CHERRY ORCHARD «GREEK SUBS»

Video
ID                                       : 1
Format                                   : AVC
Format/Info                              : Advanced Video Codec
Format profile                           : Main@L3.2
Format settings, CABAC                   : Yes
Format settings, ReFrames                : 4 frames
Codec ID                                 : V_MPEG4/ISO/AVC
Duration                                 : 2h 15mn
Bit rate                                 : 2 053 Kbps
Width                                    : 720 pixels
Height                                   : 544 pixels
Display aspect ratio                     : 4:3
Frame rate mode                          : Constant
Frame rate                               : 25.000 fps

Ο ΒΥΣΣΙΝΟΚΗΠΟΣ (1999) «ANTON CHEKHOV ΚΑΙ ΜΙΧΑΛΗΣ ΚΑΚΟΓΙΑΝΝΗΣ» «ΕΛΛΗΝΙΚΟΙ ΥΠΟΤΙΤΛΟΙ» - THE CHERRY ORCHARD «GREEK SUBS»

Color space                              : YUV
Chroma subsampling                       : 4:2:0
Bit depth                                : 8 bits
Scan type                                : Progressive
Bits/(Pixel*Frame)                       : 0.210
Stream size                              : 1.91 GiB (89%)
Writing library                          : x264 core 138 r2358 9e941d1
Encoding settings                        : cabac=1 / ref=3 / deblock=1:0:0 / analyse=0x1:0x111 / me=hex / subme=5 / psy=1 / psy_rd=1.00:0.00 / mixed_ref=1 / me_range=16 / chroma_me=1 / trellis=0 / 8x8dct=0 / cqm=0 / deadzone=21,11 / fast_pskip=1 / chroma_qp_offset=0 / threads=3 / lookahead_threads=1 / sliced_threads=0 / nr=0 / decimate=1 / interlaced=0 / bluray_compat=0 / constrained_intra=0 / bframes=3 / b_pyramid=2 / b_adapt=1 / b_bias=0 / direct=2 / weightb=1 / open_gop=0 / weightp=2 / keyint=250 / keyint_min=25 / scenecut=40 / intra_refresh=0 / rc_lookahead=40 / rc=2pass / mbtree=1 / bitrate=2053 / ratetol=1.0 / qcomp=0.60 / qpmin=10 / qpmax=51 / qpstep=4 / cplxblur=20.0 / qblur=0.5 / vbv_maxrate=20000 / vbv_bufsize=20000 / nal_hrd=none / ip_ratio=1.40 / aq=1:1.00
Language                                 : English
Default                                  : Yes
Forced                                   : No

Ο ΒΥΣΣΙΝΟΚΗΠΟΣ (1999) «ANTON CHEKHOV ΚΑΙ ΜΙΧΑΛΗΣ ΚΑΚΟΓΙΑΝΝΗΣ» «ΕΛΛΗΝΙΚΟΙ ΥΠΟΤΙΤΛΟΙ» - THE CHERRY ORCHARD «GREEK SUBS»

Audio
ID                                       : 2
Format                                   : AC-3
Format/Info                              : Audio Coding 3
Mode extension                           : CM (complete main)
Format settings, Endianness              : Big
Codec ID                                 : A_AC3
Duration                                 : 2h 15mn
Bit rate mode                            : Constant
Bit rate                                 : 192 Kbps
Channel(s)                               : 2 channels
Channel positions                        : Front: L R
Sampling rate                            : 48.0 KHz
Bit depth                                : 16 bits
Compression mode                         : Lossy
Stream size                              : 186 MiB (9%)
Default                                  : Yes
Forced                                   : No

Ο ΒΥΣΣΙΝΟΚΗΠΟΣ (1999) «ANTON CHEKHOV ΚΑΙ ΜΙΧΑΛΗΣ ΚΑΚΟΓΙΑΝΝΗΣ» «ΕΛΛΗΝΙΚΟΙ ΥΠΟΤΙΤΛΟΙ» - THE CHERRY ORCHARD «GREEK SUBS»

Κατεβάστε εδώ:
Available to users only

Κατηγορία: ΑΛΛΑ ΚΑΝΑΛΙΑ (ΔΙΑΦΟΡΑ) |
Only registered users can add comments.
[ Registration | Login ]

Σύνδεση / Εγγραφή

Login:
Password:

Φιλικές Σελίδες

Αναζήτηση Σελίδας

Αναζήτηση Μέσω Google

EZ Archive