Thursday - Πέμπτη, 21 November 2019, 08:35
Καλωσόρισες Guest | RSS

EZAccess Ελληνική Τηλεόραση

Κεντρική Σελίδα » 2010 » March - Μάρτιος » 20 » Ο ΧΡΙΣΤΟΣ ΞΑΝΑΣΤΑΥΡΩΝΕΤΑΙ - O Xristos Ksanastaurwnetai
Ο ΧΡΙΣΤΟΣ ΞΑΝΑΣΤΑΥΡΩΝΕΤΑΙ - O Xristos Ksanastaurwnetai
Ο ΧΡΙΣΤΟΣ ΞΑΝΑΣΤΑΥΡΩΝΕΤΑΙ - O Xristos Ksanastaurwnetai

Ο ΧΡΙΣΤΟΣ ΞΑΝΑΣΤΑΥΡΩΝΕΤΑΙ

Περίληψη :

Ο Χριστός ξανασταυρώνεται
είναι μία τηλεοπτική δραματική σειρά που προβλήθηκε από την ΕΡΤ
την περίοδο 1975-1976 και συντάραξε το τηλεοπτικό κοινό,
σημειώνοντας υψηλή τηλεθέαση για τα δεδομένα εκείνης της εποχής.
Το σενάριο ήταν βασισμένο στο μυθιστόρημα του Νίκου Καζαντζάκη
και με το οποίο η ΕΡΤ έκανε τα πρώτα αποφασιστικά βήματα
στην παραγωγή μεγάλων ποιοτικών τηλεοπτικών σειρών.

Η σειρά προβλήθηκε σε 50 επεισόδια των 45 λεπτών
και ήταν παραγωγή του ΑΣΤΗΡ TV.
Σήμερα σώζεται σε 18 επεισόδια των 50 λεπτών
(μεγάλο τμήμα του φίλμ πάνω στο οποίο γυρίστηκε η σειρά
ξαναχρησιμοποιήθηκε αργότερα ή καταστράφηκε λόγω κακής συντήρησης)
Η καταστροφή και η επαναχρησιμοποίηση του υλικού
πάνω στο οποίο είχαν γυριστεί οι τηλεοπτικές σειρές
μέχρι την εποχή εκείνη (Άγνωστος πόλεμος, Γιούγκερμαν κ.α.)
είχε σαν συνέπεια ο Χριστός να είναι
η παλαιότερη σωζόμενη ελληνική τηλεοπτική σειρά.
Αν και οχι ολοκληρη οπως αρχικα, με το μονταζ και την επεξεργασια
επιτευχθηκε να μην υπαρχουν κενα στην υποθεση.

Υπόθεση σειράς :

Η υπόθεση της σειράς εκτυλίσσεται στην ενδοχώρα της Μικράς Ασίας
και πιο συγκεκριμένα στο χωριό Λυκόβρυση το 1921.
Οι κάτοικοι του είχαν ένα παλιό έθιμο, κάθε 7 χρόνια
έκαναν την αναπαράσταση των Παθών του Χριστού
και έπρεπε να διαλέξουν μερικούς από τους άνδρες του χωριού
που θα υποδύονταν τους Αποστόλους και έναν
που θα υποδύονταν τον Χριστό.
Μαζεύονται οι δημογέροντες του χωριού και αποφασίζουν
σε ποιούς θα αναθέσουν τους ρόλους.
Οι δημογέροντες είναι ο παπα-Γρηγόρης, ο γερο-Λαδάς,
ο άρχοντας Πατριαρχέας, ο καπετάνιος και ο δάσκαλος του χωριού
και αδελφός του παπα-Γρηγόρη.
Οι δημογέροντες αποφασίζουν να δώσουν το ρόλο του Ιωάννη
στο γιο του Πατριαρχέα τον Μιχελή, το ρόλο του Πέτρου στο Γιαννακό
το ρόλο της Μαγδαληνής στην Κατερίνα την πόρνη του χωριού,
το ρόλο του Ιούδα στον Παναγιώταρο και τέλος το ρόλο του Χριστού
ο πιο αθώος που δεν ήταν άλλος
από τον βοσκό των προβάτων του Πατριαρχέα το Μανωλιό.

Στη συνέχεια καταφθάνουν πρόσφυγες
από κάποιο μακρινό χωριό που λεηλάτησαν οι Τούρκοι
και προσπαθούν να βρουν κάποιο μέρος να εγκατασταθούν
με ό,τι πολύτιμα πράγματα κατάφεραν να πάρουν μαζί τους.

Επικεφαλής τους είναι ένας πράος,
δυναμικός με ψυχή αντάρτη ιερέας ο παπα-Φώτης.
Δυστυχώς οι κάτοικοι της Λυκόβρυσης τους έδιωξαν
παρακινούμενοι από τον παπα-Γρηγόρη
να μην τους αφήσουν να μείνουν επειδή τάχα διαπίστωσε
ότι μία από τις γυναίκες των προσφύγων έχει χολέρα.
Ο Μανολιός όμως με τον Γιαννακό, το Μιχελή
και τους άλλους "απόστολους" τους λένε να πάνε στη Σαρακίνα
όπου και υπάρχουν κάτι σπηλιές έτσι ώστε να μείνουν εκεί.

Κατά τη διάρκεια της σειράς γίνονται πάρα πολλά γεγονότα,
περιληπτικά είναι τα εξής:
η διάλυση του αρραβώνα του Μανωλιού με τη Λενιό,
το μεγάλο μίσος του Παναγιώταρου για το Μανωλιό
επειδή πιστεύει ότι ξελόγιασε την Κατερίνα
για την οποία είχε σφοδρό πάθος,
το Γιουσουφάκι δολοφονείται από τον Σεΐζη και ο Αγάς
θεωρεί ενόχους τους Λυκοβρυσιώτες,
οι πρόσφυγες στη Σαρακίνα δυσκολεύονται να επιβιώσουν,
αλλά ο Μιχελής μετά το θάνατο του πατέρα του
τους δίνει τα χωράφια του.
Ο Παναγιώταρος γίνεται σεΐζης και παρακολουθεί κάθε κίνηση,
ο Μανολιός είναι μαζί με τους πρόσφυγες μαζί του και ο Γιαννακός
η συμπλοκή των Λυκοβρυσιωτών και των προσφύγων
δίνει στον Παναγιώταρο την ευκαιρία
να ξεσπάσει όλο του το μίσος στο Μανολιό,
οι πρόσφυγες κατεβαίνουν στο χωριό,
ο Μανολιός συλλαμβάνεται και εκτελείται
έξω από τον περίβολο της εκκλησίας από τον Παναγιώταρο
και μερικούς άλλους και θάβεται από τους Σαρακινιώτες
στη σπηλιά που είχαν βρει καταφύγιο καθώς οι ίδιοι
αποφάσισαν να βρουν αλλού τόπο να εγκατασταθούν.
Το βράδυ εκείνο, Σάββατο της Αναστάσεως,
ενώ οι Σαρακινιώτες αναχωρούν για άλλο τόπο,
Τούρκοι μπαίνουν στη Λυκόβρυση
κι αρχίζουν να σφάζουν τους κατοίκους,
ενώ ο Παναγιώταρος βλέποντας πως με τη δολοφονία του Μανολιού
δεν ησυχάζει, αυτοκτονεί.
Ο Μιχελής είναι ο μόνος που μένει πίσω,
κλεισμένος στις σπηλιές της Σαρακίνας....
Καλη τηλεθέαση.

Παιζουν:

* Κάτια Δανδουλάκη - Μαριορή
* Ανδρέας Φιλιππίδης - Πατριαρχέας
* Γιώργος Φούντας - Παναγιώταρος
* Γεωργία Βασιλειάδου - Μανταλένια
* Νάσος Κεδράκας - Κωνσταντής
* Δήμος Σταρένιος - Γερο-Λαδάς
* Αλέξης Γκόλφης - Μανωλιός
* Λυκούργος Καλλέργης - παπα-Γρηγόρης
* Νίκος Καλογερόπουλος - Νικολιό
* Ειρήνη Ιγγλέση - Λενιώ
* Νίκη Τριανταφυλλίδου - Κατερίνα
* Γιάννης Αργύρης - Αγάς
* Τζένη Φωτίου- Γιουσουφάκι
* Νότης Περγιάλης - Αφηγητής

Screenshots :

Ο ΧΡΙΣΤΟΣ ΞΑΝΑΣΤΑΥΡΩΝΕΤΑΙ - O Xristos Ksanastaurwnetai

Γενικά (ΠΑΡΟΜΟΙΑ ΓΙΑ ΟΛΑ ΤΑ ΕΠΕΙΣΟΔΙΑ)
Πλήρες όνομα : Ο ΧΡΙΣΤΟΣ ΞΑΝΑΣΤΑΥΡΩΝΕΤΑΙ-01.avi
Μορφοποίηση : AVI
Μορφοποίηση/Info : Audio Video Interleave
Μέγεθος αρχείου : 500 MiB
Duration : 49mn 2s
Συνολικό BitRate : 1 426 Kbps
Εφαρμογή εγγραφής : VirtualDubMod 1.5.4.1 (build 2178/release)
Βιβλιοθήκη κωδικοποιητή : VirtualDubMod build 2178/release
IAS1 : Greek

Video
Μορφοποίηση : MPEG-4 Visual
Format settings, BVOP : Όχι
Format settings, QPel : Όχι
Format settings, GMC : No warppoints
Format settings, Matrix : Default
Codec ID : DX50
Codec ID/Hint : DivX 5
Duration : 49mn 2s
Ρυθμός μετάδοσης δεδομένων : 1 290 Kbps
Πλάτος : 512 εικονοστοιχεία
Ύψος : 384 εικονοστοιχεία
Λόγος εικόνας : 4/3
Ρυθμός ανανέωσης πλαισίου : 25,000 fps
Ανάλυση : 24 bits
Colorimetry : 4:2:0
Scan type : Συνεχής σάρωση
Bits/(Εικονοστοιχείο*Πλαίσιο) : 0.262
Stream size : 453 MiB (91%)
Βιβλιοθήκη κωδικοποιητή : DivX 5.2.1 (DrDivX 106) (UTC 2004-09-08)

Ήχος
Μορφοποίηση : MPEG Audio
Format version : Version 1
Format profile : Layer 3
Codec ID : 55
Codec ID/Hint : MP3
Duration : 49mn 2s
Bit rate mode : Constant
Ρυθμός μετάδοσης δεδομένων : 128 Kbps
Κανάλι(α) : 2 κανάλια
Συχνότητα δειγματοληψίας : 48,0 KHz
Ανάλυση : 16 bits
Stream size : 44,9 MiB (9%)
Alignment : Aligned on interleaves
Interleave, duration : 80 ms (2,00 video frames)
Interleave, preload duration : 504 ms

Ένα μεγάλο ευχαριστώ στον mos γι' αυτό....


Ο ΧΡΙΣΤΟΣ ΞΑΝΑΣΤΑΥΡΩΝΕΤΑΙ


Κωδικός: http://cosmoleech.ucoz.com/


TA LINKS ΚΑΤΕΒΑΙΝΟΥΝ ΣΕ ΚΡΥΠΤΟΓΡΑΦΗΜΕΝΗ ΜΟΡΦΗ ΜΕ ΤΟ ΠΡΟΓΡΑΜΜΑ CRYPTLOAD,

ΤΟ ΟΠΟΙΟ ΘΑ ΒΡΕΙΤΕ ΠΑΤΩΝΤΑΣ ΣΤΗΝ ΕΙΚΟΝΑ...


CRYPTLOAD


Κατηγορία: Greek TV (ET1) |
Only registered users can add comments.
[ Registration | Login ]

Σύνδεση / Εγγραφή

Login:
Password:

Φιλικές Σελίδες

Αναζήτηση Σελίδας

Αναζήτηση Μέσω Google

EZ Archive