Sunday - Κυριακή, 18 April 2021, 14:19
Καλωσόρισες Guest | RSS

EZAccess Ελληνική Τηλεόραση

Κεντρική Σελίδα » 2013 » July - Ιούλιος » 18 » Ο ΙΟΣ (ΕΠΕΙΣΟΔΙΑ 1-2-3-4-5) - The Virus (2013) Ep 01-05 (Korean TV series) «ΕΝΣΩΜΑΤΩΜΕΝΟΙ ΕΛΛΗΝΙΚΟΙ ΥΠΟΤΙΤΛΟΙ»
Ο ΙΟΣ (ΕΠΕΙΣΟΔΙΑ 1-2-3-4-5) - The Virus (2013) Ep 01-05 (Korean TV series) «ΕΝΣΩΜΑΤΩΜΕΝΟΙ ΕΛΛΗΝΙΚΟΙ ΥΠΟΤΙΤΛΟΙ»


Ο ΙΟΣ (
ΕΠΕΙΣΟΔΙΑ 1-2-3-4-5) - The Virus (2013) Ep 01-05  (Korean TV series) «ΕΝΣΩΜΑΤΩΜΕΝΟΙ ΕΛΛΗΝΙΚΟΙ ΥΠΟΤΙΤΛΟΙ»

Τίτλος σειράς: The Virus
Αυθεντικός τίτλος: Deo Baireosu
Χώρα και έτος παραγωγής: Νότια Κορέα, 2013
Σύνολο επεισοδίων: 10
Είδος σειράς: Ψυχολογικό/ ιατρικό θρίλερ
Γλώσσα ομιλίας/ υπότιτλων: Κορεατικά/ ελληνικά (ενσωματωμένοι υπότιτλοι)
Δίκτυο μετάδοσης: OCN
Σκηνοθεσία: Choi Young Soo
Σενάριο: Lee Myung Sook
Ηθοποιοί: Uhm Ki Joon, Lee So Jung, Lee Ki Woo, Ahn Suk Hwan, Jo Hee Bong, Yoo Bin
Υπότιτλοι - ενσωμάτωση: Liimatainen

Υπόθεση σειράς
Ο ντετέκτιβ Λι Μιουν-χιουν ηγείται μιας ειδικής "ομάδας άμεσης επέμβασης και ελέγχου επιδημιών", ώστε να ερευνήσει τους μυστηριώδεις θανάτους σε ένα απομονωμένο ιατρικό κέντρο. Την στιγμή που οι έρευνες ξεκινούν, μια φωτιά καταστρέφει όλα τα στοιχεία. Ο ιός αποδεικνύεται φονικός, και παρόλο που οι μολυσμένοι ασθενείς τοποθετούνται σε καραντίνα, συνεχίζει να εξαπλώνεται. Επομένως η ομάδα ξεκινά έναν αδυσώπητο αγώνα με τον χρόνο, ώστε να προλάβει την καταστροφή.





Τεχνικά χαρακτηριστικά πρώτου επεισοδίου
General
Complete name                            : The Virus E01 130301 HDTV x264 720p-iPOP.avi
Format                                   : AVI
Format/Info                              : Audio Video Interleave
File size                                : 1.17 GiB
Duration                                 : 53mn 4s
Overall bit rate                         : 3 163 Kbps
Writing application                      : VirtualDubMod 1.5.10.2 (build 2542/release)
Writing library                          : VirtualDubMod build 2542/release

Video
ID                                       : 0
Format                                   : MPEG-4 Visual
Format profile                           : Advanced Simple@L5
Format settings, BVOP                    : 1
Format settings, QPel                    : No
Format settings, GMC                     : No warppoints
Format settings, Matrix                  : Default (H.263)
Muxing mode                              : Packed bitstream
Codec ID                                 : XVID
Codec ID/Hint                            : XviD
Duration                                 : 53mn 4s
Bit rate                                 : 3 026 Kbps
Width                                    : 1 280 pixels
Height                                   : 720 pixels
Display aspect ratio                     : 16:9
Frame rate                               : 29.970 fps
Color space                              : YUV
Chroma subsampling                       : 4:2:0
Bit depth                                : 8 bits
Scan type                                : Progressive
Compression mode                         : Lossy
Bits/(Pixel*Frame)                       : 0.110
Stream size                              : 1.12 GiB (96%)
Writing library                          : XviD 62

Audio
ID                                       : 1
Format                                   : AC-3
Format/Info                              : Audio Coding 3
Mode extension                           : CM (complete main)
Codec ID                                 : 2000
Duration                                 : 53mn 4s
Bit rate mode                            : Constant
Bit rate                                 : 128 Kbps
Channel(s)                               : 2 channels
Channel positions                        : Front: L R
Sampling rate                            : 48.0 KHz
Bit depth                                : 16 bits
Compression mode                         : Lossy
Stream size                              : 48.6 MiB (4%)
Alignment                                : Split accross interleaves
Interleave, duration                     : 64 ms (1.92 video frames)
Interleave, preload duration             : 500 ms







http://turbobit.net/621ejdm16xc7/Ios.1-5.part1.rar.html
http://turbobit.net/nwclcf7pm22v/Ios.1-5.part2.rar.html
http://turbobit.net/1omfxggqcgou/Ios.1-5.part3.rar.html
http://turbobit.net/dcx9v5207vcs/Ios.1-5.part4.rar.html
http://turbobit.net/npjraysqjt6t/Ios.1-5.part5.rar.html

Κατηγορία: ΑΛΛΑ ΚΑΝΑΛΙΑ (ΔΙΑΦΟΡΑ) |
Only registered users can add comments.
[ Registration | Login ]

Σύνδεση / Εγγραφή

Login:
Password:

Φιλικές Σελίδες

Αναζήτηση Σελίδας

Αναζήτηση Μέσω Google

EZ Archive