Friday - Παρασκευή, 22 November 2019, 07:49
Καλωσόρισες Guest | RSS

EZAccess Ελληνική Τηλεόραση

Κεντρική Σελίδα » 2010 » January - Ιανουάριος » 29 » Ο ΜΑΓΙΚΟΣ ΚΗΠΟΣ: ΤΟ ΤΡΑΓΟΥΔΙ ΤΗΣ ΑΨΗ ΝΤΑΙΖΗ - In the Night Garden: Upsy Daisy's Big Loud Sing Song (ΜΕΤΑΓΛΩΤΤΙΣΜΕΝΟ ΣΤΑ ΕΛΛΗΝΙΚΑ) (ΠΡΙΣΜΑ+)
Ο ΜΑΓΙΚΟΣ ΚΗΠΟΣ: ΤΟ ΤΡΑΓΟΥΔΙ ΤΗΣ ΑΨΗ ΝΤΑΙΖΗ - In the Night Garden: Upsy Daisy's Big Loud Sing Song (ΜΕΤΑΓΛΩΤΤΙΣΜΕΝΟ ΣΤΑ ΕΛΛΗΝΙΚΑ) (ΠΡΙΣΜΑ+)
Ο ΜΑΓΙΚΟΣ ΚΗΠΟΣ: ΤΟ ΤΡΑΓΟΥΔΙ ΤΗΣ ΑΨΗ ΝΤΑΙΖΗ - In the Night Garden: Upsy Daisy's Big Loud Sing Song (ΜΕΤΑΓΛΩΤΤΙΣΜΕΝΟ ΣΤΑ ΕΛΛΗΝΙΚΑ) (ΠΡΙΣΜΑ+)

Ο ΜΑΓΙΚΟΣ ΚΗΠΟΣ: ΤΟ ΤΡΑΓΟΥΔΙ ΤΗΣ ΑΨΗ ΝΤΑΙΖΗ - In the Night Garden: Upsy Daisy's Big Loud Sing Song (ΜΕΤΑΓΛΩΤΙΣΜΕΝΟ ΣΤΑ ΕΛΛΗΝΙΚΑ) (ΠΡΙΣΜΑ+)

IN THE NIGHT GARDEN
Έτος παραγωγής: (2007)

Μια εκπληκτική παιδική σειρά βασισμένη σ’ ένα παιδικό βιβλίο με ρίμες, παίρνει τα παιδιά σ’ ένα φανταστικό ταξίδι με αθώους χαρακτήρες, που ζουν όλοι μαζί σε μια χαρούμενη και προφυλαγμένη κοινότητα. Ένας κόσμος μαγικός!

Για παιδιά προσχολικής ηλικίας .

Παραγωγή: BBC
Σενάριο: Άντριου Ντάβενπορτ

Ο ΜΑΓΙΚΟΣ ΚΗΠΟΣ: ΤΟ ΤΡΑΓΟΥΔΙ ΤΗΣ ΑΨΗ ΝΤΑΙΖΗ - In the Night Garden: Upsy Daisy's Big Loud Sing Song (ΜΕΤΑΓΛΩΤΤΙΣΜΕΝΟ ΣΤΑ ΕΛΛΗΝΙΚΑ) (ΠΡΙΣΜΑ+)

General
Complete name : In the Night Garden - Upsy Daisy's Big Loud Sing Song.avi
Format : AVI
Format/Info : Audio Video Interleave
File size : 329 MiB
Duration : 28mn 3s
Overall bit rate : 1 639 Kbps

Video
ID : 0
Format : MPEG-4 Visual
Format profile : Simple@L3
Format settings, BVOP : Yes
Format settings, QPel : No
Format settings, GMC : No warppoints
Format settings, Matrix : Default (H.263)
Codec ID : XVID
Codec ID/Hint : XviD
Duration : 28mn 3s
Bit rate : 1 499 Kbps
Width : 512 pixels
Height : 384 pixels
Display aspect ratio : 4:3
Frame rate : 25.000 fps
Resolution : 8 bits
Scan type : Progressive
Bits/(Pixel*Frame) : 0.305
Stream size : 301 MiB (91%)

Audio
ID : 1
Format : MPEG Audio
Format version : Version 1
Format profile : Layer 3
Mode : Joint stereo
Format_Settings_ModeExtension : MS Stereo
Codec ID : 55
Codec ID/Hint : MP3
Duration : 28mn 3s
Bit rate mode : Constant
Bit rate : 128 Kbps
Channel(s) : 2 channels
Sampling rate : 44.1 KHz
Stream size : 25.7 MiB (8%)
Alignment : Aligned on interleaves
Interleave, duration : 26 ms (0.65 video frame)
Interleave, preload duration : 496 ms
Writing library : LAME3.97

Free DownLoad Link Below - Κατεβάστε εδώ:

 http://rapidshare.com/files/342127305/0_MAG1K0S_K1P0S_UPSY_DA1SYS_B1G_L0UD_S1NG_S0NG_EZAccess.at.ua.part1.rar

  http://rapidshare.com/files/342137835/0_MAG1K0S_K1P0S_UPSY_DA1SYS_B1G_L0UD_S1NG_S0NG_EZAccess.at.ua.part2.rar


Κατηγορία: Greek TV (ΠΡΙΣΜΑ+) |
Only registered users can add comments.
[ Registration | Login ]

Σύνδεση / Εγγραφή

Login:
Password:

Φιλικές Σελίδες

Αναζήτηση Σελίδας

Αναζήτηση Μέσω Google

EZ Archive