Sunday - Κυριακή, 18 April 2021, 03:54
Καλωσόρισες Guest | RSS

EZAccess Ελληνική Τηλεόραση

Κεντρική Σελίδα » 2013 » October - Οκτώβριος » 28 » Ο ΜΥΣΤΙΚΟΣ ΣΚΙΟΥΡΟΣ (1976) - SECRET SQUIRREL «ΜΕΤΑΓΛΩΤΤΙΣΜΕΝΟ ΣΤΑ ΕΛΛΗΝΙΚΑ»
Ο ΜΥΣΤΙΚΟΣ ΣΚΙΟΥΡΟΣ (1976) - SECRET SQUIRREL «ΜΕΤΑΓΛΩΤΤΙΣΜΕΝΟ ΣΤΑ ΕΛΛΗΝΙΚΑ»


Ο ΜΥΣΤΙΚΟΣ ΣΚΙΟΥΡΟΣ (1976) - SECRET SQUIRREL «ΜΕΤΑΓΛΩΤΤΙΣΜΕΝΟ ΣΤΑ ΕΛΛΗΝΙΚΑ»


Ο μυστικός σκίουρος συνεργάζεται με τον τυφλοπόντικα Μορόκο χρησιμοποιώντας περισσότερα σύνεργα απο τον Τζέημς Μποντ.
Μαζί με την καταπληκτική μυστική κατάσκοπο συλλαμβάνουν τους πιο διαβολεμένους και ξύπνιους κατασκόπους.



Format                         : AVI

Format/Info                    : Audio Video Interleave

File size                      : 637 MiB

Duration                       : 53mn 10s

Overall bit rate               : 1 675 Kbps

Writing application            : MEncoder SVN-r29352(20090610-gcc4.3.3)

Writing library                : MPlayer



Video

ID                             : 0

Format                         : MPEG-4 Visual

Format profile                 : Advanced Simple@L5

Format settings, BVOP          : 2

Format settings, QPel          : No

Format settings, GMC           : No warppoints

Format settings, Matrix        : Default (H.263)

Codec ID                       : XVID

Codec ID/Hint                  : XviD

Duration                       : 53mn 10s

Bit rate                       : 1 535 Kbps

Width                          : 640 pixels

Height                         : 480 pixels

Display aspect ratio           : 4:3

Frame rate                     : 25.000 fps

Color space                    : YUV

Chroma subsampling             : 4:2:0

Bit depth                      : 8 bits

Scan type                      : Progressive

Compression mode               : Lossy

Bits/(Pixel*Frame)             : 0.200

Stream size                    : 584 MiB (92%)

Writing library                : XviD 1.2.1 (UTC 2008-12-04)



Audio

ID                             : 1

Format                         : MPEG Audio

Format version                 : Version 1

Format profile                 : Layer 3

Mode                           : Joint stereo

Mode extension                 : MS Stereo

Codec ID                       : 55

Codec ID/Hint                  : MP3

Duration                       : 53mn 10s

Bit rate mode                  : Constant

Bit rate                       : 128 Kbps

Channel(s)                     : 2 channels

Sampling rate                  : 44.1 KHz

Compression mode               : Lossy

Delay relative to video        : 40ms

Stream size                    : 48.7 MiB (8%)

Alignment                      : Aligned on interleaves

Interleave, duration           : 26 ms (0.65 video frame)

Interleave, preload duration   : 522 ms

Κατεβάστε εδώ:
Available to users only
Κατηγορία: ΑΛΛΑ ΚΑΝΑΛΙΑ (ΔΙΑΦΟΡΑ) |
Only registered users can add comments.
[ Registration | Login ]

Σύνδεση / Εγγραφή

Login:
Password:

Φιλικές Σελίδες

Αναζήτηση Σελίδας

Αναζήτηση Μέσω Google

EZ Archive