Monday - Δευτέρα, 19 April 2021, 08:03
Καλωσόρισες Guest | RSS

EZAccess Ελληνική Τηλεόραση

Κεντρική Σελίδα » 2013 » June - Ιούνιος » 7 » Ο ΝΟΝΟΣ ΤΡΙΛΟΓΙΑ (1972-1974-1990) - The Godfather Trilogy 480p BRRip XviD AC3-AsA [GREEK SUBS]
Ο ΝΟΝΟΣ ΤΡΙΛΟΓΙΑ (1972-1974-1990) - The Godfather Trilogy 480p BRRip XviD AC3-AsA [GREEK SUBS]


Ο ΝΟΝΟΣ ΤΡΙΛΟΓΙΑ (1972-1974-1990) - The Godfather Trilogy 480p BRRip XviD AC3-AsA [GREEK SUBS]


ΔΕΙΤΕ ΤΗΝ ΠΙΟ ΔΙΑΣΗΜΗ ΣΚΟΤΕΙΝΗ, ΣΥΓΚΛΟΝΙΣΤΙΚΗ ΚΑΙ ΠΑΝΕΜΟΡΦΗ ΤΡΙΛΟΓΙΑ ΤΑΙΝΙΩΝ, ΣΤΗ ΜΟΡΦΗ ΠΟΥ ΟΡΑΜΑΤΙΣΤΗΚΕ Ο ΔΗΜΙΟΥΡΓΟΣ ΤΗΣ ΓΙΑ ΤΟΝ ΚΙΝΗΜΑΤΟΓΡΑΦΟ.

Μια μοναδική συλλογή που περιλαμβάνει τις Τρεις ταινίες και περισσότερες από 4 ώρες πρόσθετων παροχών.
Η τριλογία "Ο Νονός" αποτελεί σημείο αναφοράς για την ιστορία του κινηματογράφου. Ο Φράνσις Φορντ Κόπολα μεταφέρει αριστουργηματικά στην μεγάλη οθόνη το μυθιστόρημα του Mario Puzo, παρουσιάζοντας την άνοδο και την πτώση της οικογένειας Κορλεόνε.
Οι ταινίες της Τριλογίας ήταν υποψήφιες συνολικά για 28 βραβεία Όσκαρ, από τα οποία κέρδισαν τα 9μ συμπεριλαμβανομένου και αυτού της Καλύτερης Ταινία για τις "Ο Νονός" & "Ο Νονός - Μέρος 2".

The Godfather Part I 1972 - Ο ΝΟΝΟΣ, ΜΕΡΟΣ 1ο 1972



Ελληνικοί Υπότιτλοι Σε Ξεχωριστό Αρχείο

Είδος :
Περιπέτεια, Δράμα

Γλώσσα    :   Αγγλικά, Ιταλικά, Λατινικά (English, Italian, Latin)
Υπότιτλοι  :   Ελληνικά (Greek)

Πλοκή :
Η ιστορία αφορά τον Δον Κορλεόνε (Μάρλο Μπράντο) και την οικογένεια του η οποία είναι μία από τις Πέντε Οικογένειες του οργανωμένου εγκλήματος στην Νέα Υόρκη. Ο γιος του Μάικλ (Αλ Πατσίνο) μόλις έχει γυρίσει από τον Β' Παγκόσμιο Πόλεμο και θέλει να συνεχίσει μια κανονική ζωή. Κάτι το οποίο δεν θέλει ούτε να ακούει ο Δον καθώς τον προορίζει για αρχηγός της Φαμίλιας του. Ο Μάικλ τελικά θα αναλάβει την αρχηγία της Φαμίλιας του μετά την αποτυχημένη απόπειρα δολοφονίας κατά του πατέρα του από άντρες του Σολόζο με τον οποίο και θα ξεκινήσει πόλεμο.

Σκηνοθεσία : Francis Ford Coppola
Σενάριο : Mario Puzo, Francis Ford Coppola
Ηθοποιοί : Marlon Brando, Al Pacino, James Caan, Robert Duvall

Screens :






Media Info :
General
Format   :   AVI
Format/Info   :   Audio Video Interleave
Format profile   :   OpenDML
File size   :   2.89 GiB
Duration   :   2h 57mn
Overall bit rate   :   2 334 Kbps
Writing application   :   VirtualDubMod 1.6.0.0 SURROUND (build 2560/release)
Writing library   :   VirtualDubMod build 2560/release

Video
ID   :   0
Format   :   MPEG-4 Visual
Format profile   :   Advanced Simple@L5
Format settings, BVOP   :   2
Format settings, QPel   :   No
Format settings, GMC   :   No warppoints
Format settings, Matrix   :   Default (H.263)
Muxing mode   :   Packed bitstream
Codec ID   :   XVID
Codec ID/Hint   :   XviD
Duration   :   2h 57mn
Bit rate   :   1 875 Kbps
Width   :   720 pixels
Height   :   400 pixels
Display aspect ratio   :   16:9
Frame rate   :   23.976 fps
Color space   :   YUV
Chroma subsampling   :   4:2:0
Bit depth   :   8 bits
Scan type   :   Progressive
Compression mode   :   Lossy
Bits/(Pixel*Frame)   :   0.272
Stream size   :   2.32 GiB (80%)
Writing library   :   XviD 63

Audio
ID   :   1
Format   :   AC-3
Format/Info   :   Audio Coding 3
Mode extension   :   CM (complete main)
Format settings, Endianness   :   Big
Codec ID   :   2000
Duration   :   2h 57mn
Bit rate mode   :   Constant
Bit rate   :   448 Kbps
Channel(s)   :   6 channels
Channel positions   :   Front: L C R, Side: L R, LFE
Sampling rate   :   48.0 KHz
Bit depth   :   16 bits
Compression mode   :   Lossy
Stream size   :   568 MiB (19%)
Alignment   :   Split accross interleaves
Interleave, duration   :   42 ms (1.00 video frame)
Interleave, preload duration   :   500 ms

The Godfather Part II 1974 - Ο ΝΟΝΟΣ, ΜΕΡΟΣ 2ο 1974



Ελληνικοί Υπότιτλοι Σε Ξεχωριστό Αρχείο

Είδος :
Περιπέτεια, Δράμα

Γλώσσα    :   Αγγλικά, Ισπανικά, Ιταλικά, Λατινικά (English, Spanish, Italian, Latin)
Υπότιτλοι  :   Ελληνικά (Greek)

Πλοκή :
Στο 2ο μέρος της τριλογίας του Φράνσις Φόρντ Κόπολα βλέπουμε δύο παράλληλες κύριες πλοκές του έργου. Η μία περιλαμβάνει την ιστορία του αρχηγού της Μαφίας, Μάικλ Κορλεόνε κατά τη διάρκεια του ψυχρού πολέμου, και η άλλη είναι μια σειρά αναδρομών στο παρελθόν με τον πατέρα του, Βίτο Κορλεόνε, από την παιδική του ηλικία στην Σικελία το 1901 και στην ίδρυσή της οικογένειας Κορλεόνε στην πόλη της Νέας Υόρκης ενώ ήταν ακόμη νεαρός (1917-1925).

Σκηνοθεσία : Francis Ford Coppola
Σενάριο : Francis Ford Coppola (screenplay), Mario Puzo
Ηθοποιοί : Al Pacino, Robert Duvall, Diane Keaton, Robert De Niro

Screens :







Media Info :
General
Format   :   AVI
Format/Info   :   Audio Video Interleave
Format profile   :   OpenDML
File size   :   3.30 GiB
Duration   :   3h 22mn
Overall bit rate   :   2 339 Kbps
Writing application   :   VirtualDubMod 1.6.0.0 SURROUND (build 2560/release)
Writing library   :   VirtualDubMod build 2560/release

Video
ID   :   0
Format   :   MPEG-4 Visual
Format profile   :   Advanced Simple@L5
Format settings, BVOP   :   2
Format settings, QPel   :   No
Format settings, GMC   :   No warppoints
Format settings, Matrix   :   Default (H.263)
Muxing mode   :   Packed bitstream
Codec ID   :   XVID
Codec ID/Hint   :   XviD
Duration   :   3h 22mn
Bit rate   :   1 881 Kbps
Width   :   720 pixels
Height   :   400 pixels
Display aspect ratio   :   16:9
Frame rate   :   23.976 fps
Color space   :   YUV
Chroma subsampling   :   4:2:0
Bit depth   :   8 bits
Scan type   :   Progressive
Compression mode   :   Lossy
Bits/(Pixel*Frame)   :   0.272
Stream size   :   2.66 GiB (80%)
Writing library   :   XviD 63

Audio
ID   :   1
Format   :   AC-3
Format/Info   :   Audio Coding 3
Mode extension   :   CM (complete main)
Format settings, Endianness   :   Big
Codec ID   :   2000
Duration   :   3h 22mn
Bit rate mode   :   Constant
Bit rate   :   448 Kbps
Channel(s)   :   6 channels
Channel positions   :   Front: L C R, Side: L R, LFE
Sampling rate   :   48.0 KHz
Bit depth   :   16 bits
Compression mode   :   Lossy
Stream size   :   648 MiB (19%)
Alignment   :   Split accross interleaves
Interleave, duration   :   42 ms (1.00 video frame)
Interleave, preload duration   :   500 ms

Τhe Godfather Part III 1990 - Ο ΝΟΝΟΣ, ΜΕΡΟΣ 3ο 1990



Ελληνικοί Υπότιτλοι Σε Ξεχωριστό Αρχείο

Είδος :
Περιπέτεια, Δράμα, Μυστηρίου

Γλώσσα    :   Αγγλικά, Ιταλικά, Γερμανικά, Λατινικά (English, Italian, German, Latin)
Υπότιτλοι  :   Ελληνικά (Greek)

Πλοκή :
Στην Αμερική της δεκαετίας του '60, ο Μichael παραμένει αρχηγός της οικογένειας Coleone, τώρα όμως κυριεύεται από δύο μεγάλα πάθη.
Ψάχνει για έναν κατάλληλο διάδοχο και προσπαθεί να βγάλει την οικογένειά του από το έγκλημα.Στο πρόσωπο του νεότερου Vincent βλέπει τον άνθρωπο που θα μπορούσε να τον διαδεχτεί, τελικά όμως αποδεικνύεται ότι το να ξεφύγει κανείς από την Μαφία είναι σχεδόν αδύνατο.Σύντομα τα πάντα θα καταλήξουν σε έναν αιματηρό κύκλο βίας.

Σκηνοθεσία : Francis Ford Coppola
Σενάριο : Mario Puzo, Francis Ford Coppola
Ηθοποιοί : Al Pacino, Diane Keaton, Talia Shire, Andy Garcia, Joe Mantegna, Bridget Fonda

Screens :







Media Info :
General
Format   :   AVI
Format/Info   :   Audio Video Interleave
Format profile   :   OpenDML
File size   :   2.78 GiB
Duration   :   2h 50mn
Overall bit rate   :   2 337 Kbps
Writing application   :   VirtualDubMod 1.6.0.0 SURROUND (build 2560/release)
Writing library   :   VirtualDubMod build 2560/release

Video
ID   :   0
Format   :   MPEG-4 Visual
Format profile   :   Advanced Simple@L5
Format settings, BVOP   :   2
Format settings, QPel   :   No
Format settings, GMC   :   No warppoints
Format settings, Matrix   :   Default (H.263)
Muxing mode   :   Packed bitstream
Codec ID   :   XVID
Codec ID/Hint   :   XviD
Duration   :   2h 50mn
Bit rate   :   1 878 Kbps
Width   :   720 pixels
Height   :   400 pixels
Display aspect ratio   :   16:9
Frame rate   :   23.976 fps
Color space   :   YUV
Chroma subsampling   :   4:2:0
Bit depth   :   8 bits
Scan type   :   Progressive
Compression mode   :   Lossy
Bits/(Pixel*Frame)   :   0.272
Stream size   :   2.23 GiB (80%)
Writing library   :   XviD 63

Audio
ID   :   1
Format   :   AC-3
Format/Info   :   Audio Coding 3
Mode extension   :   CM (complete main)
Format settings, Endianness   :   Big
Codec ID   :   2000
Duration   :   2h 50mn
Bit rate mode   :   Constant
Bit rate   :   448 Kbps
Channel(s)   :   6 channels
Channel positions   :   Front: L C R, Side: L R, LFE
Sampling rate   :   48.0 KHz
Bit depth   :   16 bits
Compression mode   :   Lossy
Stream size   :   546 MiB (19%)
Alignment   :   Split accross interleaves
Interleave, duration   :   42 ms (1.00 video frame)
Interleave, preload duration   :   500 ms



http://turbobit.net/oyh4ftilxc3x/NONOS.TRILOGIA.480p.part1.rar.html
http://turbobit.net/gdcjykovyw0z/NONOS.TRILOGIA.480p.part2.rar.html
http://turbobit.net/waqcsbxypql4/NONOS.TRILOGIA.480p.part3.rar.html
http://turbobit.net/q5ajzd6vp1ol/NONOS.TRILOGIA.480p.part4.rar.html
http://turbobit.net/74zn3qx544um/NONOS.TRILOGIA.480p.part5.rar.html
http://turbobit.net/fejod6uatpym/NONOS.TRILOGIA.480p.part6.rar.html
http://turbobit.net/glm5f7u5ddg3/NONOS.TRILOGIA.480p.part7.rar.html

Ή

http://uploaded.net/file/5rwhtwkq/NONOS.TRILOGIA.480p.part1.rar
http://uploaded.net/file/yb98z9u0/NONOS.TRILOGIA.480p.part2.rar
http://uploaded.net/file/wba07ip6/NONOS.TRILOGIA.480p.part3.rar
http://uploaded.net/file/7cam8lp1/NONOS.TRILOGIA.480p.part4.rar
http://uploaded.net/file/lpwdvyd4/NONOS.TRILOGIA.480p.part5.rar
http://uploaded.net/file/cig6jdql/NONOS.TRILOGIA.480p.part6.rar
http://uploaded.net/file/enzmttl3/NONOS.TRILOGIA.480p.part7.rar


Κωδικός αποσυμπίεσης:
thelwseires

Κατηγορία: ΑΛΛΑ ΚΑΝΑΛΙΑ (ΔΙΑΦΟΡΑ) |
Only registered users can add comments.
[ Registration | Login ]

Σύνδεση / Εγγραφή

Login:
Password:

Φιλικές Σελίδες

Αναζήτηση Σελίδας

Αναζήτηση Μέσω Google

EZ Archive