Monday - Δευτέρα, 19 April 2021, 12:41
Καλωσόρισες Guest | RSS

EZAccess Ελληνική Τηλεόραση

Κεντρική Σελίδα » 2012 » September - Σεπτέμβριος » 17 » Ο ΘΡΥΛΟΣ ΤΗΣ ΚΟΡΡΑ (ΣΕΖΟΝ 1 ΕΠΕΙΣΟΔΙΟ 01) - The.Legend.Of.Korra.S01E01-Welcome.To.Republic.City-DVB-T.CLGrTv «ΜΕΤΑΓΛΩΤΤΙΣΜΕΝΟ ΣΤΑ ΕΛΛΗΝΙΚΑ»
Ο ΘΡΥΛΟΣ ΤΗΣ ΚΟΡΡΑ (ΣΕΖΟΝ 1 ΕΠΕΙΣΟΔΙΟ 01) - The.Legend.Of.Korra.S01E01-Welcome.To.Republic.City-DVB-T.CLGrTv «ΜΕΤΑΓΛΩΤΤΙΣΜΕΝΟ ΣΤΑ ΕΛΛΗΝΙΚΑ»
Ο ΘΡΥΛΟΣ ΤΗΣ ΚΟΡΡΑ (ΣΕΖΟΝ 1 ΕΠΕΙΣΟΔΙΟ 01) - The.Legend.Of.Korra.S01E01.Welcome.To.Republic.City-DVB-T.CLGrTv «ΜΕΤΑΓΛΩΤΤΙΣΜΕΝΟ ΣΤΑ ΕΛΛΗΝΙΚΑ»

Ο ΘΡΥΛΟΣ ΤΗΣ ΚΟΡΡΑ (ΣΕΖΟΝ 1 ΕΠΕΙΣΟΔΙΟ 01) - The.Legend.Of.Korra.S01E01-Welcome.To.Republic.City-DVB-T.CLGrTv
«ΜΕΤΑΓΛΩΤΤΙΣΜΕΝΟ ΣΤΑ ΕΛΛΗΝΙΚΑ - GREEK AUDIO»


Ο θρύλος της Κόρρα είναι η Κόρρα, ένα νεαρό κορίτσι και η τωρινή ενσωμάτωση του Αβατάρ. Η Κόρρα είναι ασυγκράτητη, ανεξάρτητη και έτοιμη να σώσει τον κόσμο. Έχει ήδη δαμάσει το νερό, τη γη και τη φωτιά, αλλά χρειάζεται να μάθει και τη μαγεία του αέρα. Ως προς το χαρακτήρα, μοιάζει πολύ με την Αβατάρ Κιόσι, μιας και οι δημιουργοί κατάλαβαν πώς η Αβατάρ Κιόσι είναι ο πιο αγαπητός, για τους θαυμαστές του Αβατάρ.

Σε αντίθεση με το "Αβατάρ: Ο θρύλος του Άανγκ", "Ο θρύλος της Κόρρα" διεξάγεται σε ένα μέρος, ονομαζόμενο "Ομοσπονδιακή Πόλη". Η εμφάνιση της πόλης βασίζεται στην εμφάνιση της Σαγκάη, κατά τη διάρκεια των δεκαετιών του 1920 και του 1930, την εμφάνιση του Χονγκ Κονγκ, του Μανχάταν και τους Βανκούβερ. Η Κόρρα θα μάθει τη μαγεία του αέρα από το δάσκαλο Τένζιν, γιο του Αβατάρ Άανγκ και της Κατάρα, και θα υποστηρίξει μια επανάσταση κατά της μαγείας που διεξάγεται στη πόλη.

Ο ΘΡΥΛΟΣ ΤΗΣ ΚΟΡΡΑ (ΣΕΖΟΝ 1 ΕΠΕΙΣΟΔΙΟ 01) - The.Legend.Of.Korra.S01E01-Welcome.To.Republic.City-DVB-T.CLGrTv «ΜΕΤΑΓΛΩΤΤΙΣΜΕΝΟ ΣΤΑ ΕΛΛΗΝΙΚΑ»

General
Complete name                            : Pswmi.Ep.01.DVB-T.CLGrTv.avi
Format                                   : AVI
Format/Info                              : Audio Video Interleave
File size                                : 434 MiB
Duration                                 : 22mn 43s
Overall bit rate                         : 2 670 Kbps

Video
ID                                       : 0
Format                                   : MPEG-4 Visual
Format profile                           : Simple@L3
Format settings, BVOP                    : Yes
Format settings, QPel                    : No
Format settings, GMC                     : No warppoints
Format settings, Matrix                  : Default (H.263)
Codec ID                                 : XVID
Codec ID/Hint                            : XviD
Duration                                 : 22mn 43s
Bit rate                                 : 2 498 Kbps
Width                                    : 624 pixels
Height                                   : 352 pixels
Display aspect ratio                     : 16:9
Frame rate                               : 25.000 fps
Color space                              : YUV
Chroma subsampling                       : 4:2:0
Bit depth                                : 8 bits
Scan type                                : Progressive
Compression mode                         : Lossy
Bits/(Pixel*Frame)                       : 0.455
Stream size                              : 406 MiB (94%)

Audio
ID                                       : 1
Format                                   : MPEG Audio
Format version                           : Version 1
Format profile                           : Layer 3
Mode                                     : Joint stereo
Codec ID                                 : 55
Codec ID/Hint                            : MP3
Duration                                 : 22mn 43s
Bit rate mode                            : Constant
Bit rate                                 : 160 Kbps
Channel(s)                               : 2 channels
Sampling rate                            : 44.1 KHz
Compression mode                         : Lossy
Stream size                              : 26.0 MiB (6%)
Alignment                                : Aligned on interleaves
Interleave, duration                     : 26 ms (0.65 video frame)
Writing library                          : LAME3.97



Pswmi.Ep.01.DVB-T.CLGrTv.avi

ή

http://depositfiles.com/files/k7my5cf11

ή

http://www.netload.in/dateib18Powvvy4/Pswmi.Ep.01.DVB-T.CLGrTv.avi.htm
Κατηγορία: ΑΛΛΑ ΚΑΝΑΛΙΑ (ΔΙΑΦΟΡΑ) |
Only registered users can add comments.
[ Registration | Login ]

Σύνδεση / Εγγραφή

Login:
Password:

Φιλικές Σελίδες

Αναζήτηση Σελίδας

Αναζήτηση Μέσω Google

EZ Archive