Sunday - Κυριακή, 18 April 2021, 14:15
Καλωσόρισες Guest | RSS

EZAccess Ελληνική Τηλεόραση

Κεντρική Σελίδα » 2012 » September - Σεπτέμβριος » 5 » Ο ΤΖΙΠΟΥΛΗΣ: ΤΟ 4Χ4 ΤΖΙΠ ΠΟΥ ΗΘΕΛΕ ΝΑ ΠΕΤΑΞΕΙ - TUGGER: THE JEEP 4X4 WHO WANTED TO FLY «ΜΕΤΑΓΛΩΤΤΙΣΜΕΝΟ ΣΤΑ ΕΛΛΗΝΙΚΑ»
Ο ΤΖΙΠΟΥΛΗΣ: ΤΟ 4Χ4 ΤΖΙΠ ΠΟΥ ΗΘΕΛΕ ΝΑ ΠΕΤΑΞΕΙ - TUGGER: THE JEEP 4X4 WHO WANTED TO FLY «ΜΕΤΑΓΛΩΤΤΙΣΜΕΝΟ ΣΤΑ ΕΛΛΗΝΙΚΑ»


Ο ΤΖΙΠΟΥΛΗΣ: ΤΟ 4Χ4 ΤΖΙΠ ΠΟΥ ΗΘΕΛΕ ΝΑ ΠΕΤΑΞΕΙ - TUGGER: THE JEEP 4X4 WHO WANTED TO FLY «ΜΕΤΑΓΛΩΤΤΙΣΜΕΝΟ ΣΤΑ ΕΛΛΗΝΙΚΑ»


Το 4Χ4 τζιπ που ήθελε να πετάξει!
Ο Τζιπούλης είναι ένα μικρό τζιπ με ένα πολύ συγκεκριμένο όνειρο να πετάξει! Κατά την διάρκεια του Δευτέρου Παγκοσμίου Πολέμου ο Τζιπούλης τραυματίστηκε και η μηχανή του αντικαταστάθηκε από μία ολοκαίνουργια προπέλα αεροπλάνου. Από τότε ο Τζιπούλης ήξερε πως μια μέρα θα πετούσε και ο ίδιος ψηλά στον ουρανό, όπως ακριβώς ένα αληθινό αεροπλάνο!
Τώρα που ο πόλεμος τελείωσε ο Τζιπούλης βρίσκεται σε ένα αεροδρόμιο ρυμουλκώντας αεροπλάνα παρέα με τον καλύτερό του φίλο, τον Μικρούλη. Μαζί βρίσκονται συνεχώς σε μπελάδες εξαιτίας του Αρχηγού του Πύργου, ενός πρώην πεζοναύτη, και του τρελού σκύλου του, Μαξ, ο οποίος μονίμως κυνηγάει τα λάστιχα του Τζιπούλης.
Παρακολουθείστε αυτή τη μοναδική περιπέτεια, όπου ο Τζιπούλης και ο Κοντούλης ξεπερνούν τα τεράστια εμπόδια και συνειδητοποιούν πως τα όνειρα καμιά φορά μπορεί να κρύβουν μεγάλη δύναμη!



Στα Ελληνικά με τις φωνές των:
ΝΕΣΤΟΡΑ ΚΟΨΙΔΑ
ΧΡΗΣΤΟΥ ΚΑΛΟΟΥ
ΘΑΝΑΣΗ ΚΟΥΡΛΑΜΠΑ
ΓΙΩΡΓΟΥ ΠΕΤΡΟΧΕΙΛΟΥ
ΣΟΦΙΑΣ ΠΑΝΑΗΛΙΔΟΥ



General
Format                                   : Matroska
Format version                           : Version 2
File size                                : 1.05 GiB
Duration                                 : 59mn 31s
Overall bit rate                         : 2 535 Kbps
Writing application                      : HandBrake 0.9.5
Writing library                          : libmkv 0.6.4.1

Video
ID                                       : 1
Format                                   : AVC
Format/Info                              : Advanced Video Codec
Format profile                           : Main@L3.1
Format settings, CABAC                   : Yes
Format settings, ReFrames                : 9 frames
Codec ID                                 : V_MPEG4/ISO/AVC
Duration                                 : 59mn 31s
Bit rate                                 : 2 340 Kbps
Width                                    : 720 pixels
Height                                   : 544 pixels
Display aspect ratio                     : 4:3
Frame rate mode                          : Variable
Frame rate                               : 25.000 fps
Color space                              : YUV
Chroma subsampling                       : 4:2:0
Bit depth                                : 8 bits
Scan type                                : Progressive
Bits/(Pixel*Frame)                       : 0.239
Stream size                              : 976 MiB (90%)
Writing library                          : x264 core 112



Default                                  : Yes
Forced                                   : No
Color primaries                          : BT.601-6 525, BT.1358 525, BT.1700 NTSC, SMPTE 170M
Transfer characteristics                 : BT.709-5, BT.1361
Matrix coefficients                      : BT.601-6 525, BT.1358 525, BT.1700 NTSC, SMPTE 170M

Audio
ID                                       : 2
Format                                   : AC-3
Format/Info                              : Audio Coding 3
Mode extension                           : CM (complete main)
Codec ID                                 : A_AC3
Duration                                 : 59mn 31s
Bit rate mode                            : Constant
Bit rate                                 : 192 Kbps
Channel(s)                               : 2 channels
Channel positions                        : Front: L R
Sampling rate                            : 48.0 KHz
Bit depth                                : 16 bits
Compression mode                         : Lossy
Stream size                              : 81.8 MiB (8%)
Language                                 : Greek






TAGKER.0.TZIPOYLHS.avi

ή

http://depositfiles.com/files/w4bjgjiv3 TAGKER.0.TZIPOYLHS.avi

ή

http://www.netload.in/dateiW8IIJxZezo/TAGKER.0.TZIPOYLHS.avi.htm


Pass: thelwseires
Κατηγορία: ΑΛΛΑ ΚΑΝΑΛΙΑ (ΔΙΑΦΟΡΑ) |
Only registered users can add comments.
[ Registration | Login ]

Σύνδεση / Εγγραφή

Login:
Password:

Φιλικές Σελίδες

Αναζήτηση Σελίδας

Αναζήτηση Μέσω Google

EZ Archive