Tuesday - Τρίτη, 20 April 2021, 16:05
Καλωσόρισες Guest | RSS

EZAccess Ελληνική Τηλεόραση

Κεντρική Σελίδα » 2013 » February - Φεβρουάριος » 24 » ΟΙΚΟΠΕΔΑ ΜΕ ΘΕΑ - GLENGARRY GLEN ROSS (1992) «ΕΛΛΗΝΙΚΟΙ ΥΠΟΤΙΤΛΟΙ»
ΟΙΚΟΠΕΔΑ ΜΕ ΘΕΑ - GLENGARRY GLEN ROSS (1992) «ΕΛΛΗΝΙΚΟΙ ΥΠΟΤΙΤΛΟΙ»


ΟΙΚΟΠΕΔΑ ΜΕ ΘΕΑ - GLENGARRY GLEN ROSS (1992) 720p HDTV DD5.1 x264-M794 «ΕΛΛΗΝΙΚΟΙ ΥΠΟΤΙΤΛΟΙ»


Αυθεντικός Τίτλος: Glengarry Glen Ross
Μεταφρασμένος Τίτλος: Οικόπεδα με Θέα
Είδος : Δραματική
Παραγωγής: 1992
Διάρκεια: 100'
Σκηνοθεσία:     James Foley
Ηθοποιοί: Al Pacino, Alex Baldwin, Jack Lemmon, Ed Harris
IMDb RATING.............: 7.9/10 ( 45,307   votes)
Γλώσσα: Αγγλικά
ΥΠΟΤΙΤΛΟΙ: Σε ξεχωριστο αρχειο srt

Υπόθεση - Σχολια
Μια βροχερή νύχτα σε ένα θλιβερό μεσιτικό γραφείο της Νέας Υόρκης, η διοίκηση δίνει τελεσίγραφο σε μια ομάδα απεγνωσμένων πωλητών να πουλήσουν μέχρι το πρωί ακίνητα αμφίβολης αξίας, σε ανθρώπους που δεν έχουν κάποιο ιστορικό επενδύσεων σε οικόπεδα. Αυτοί που θα τα καταφέρουν θα αποκτήσουν μια λίστα με τους καλούς πελάτες. Σε περίπτωση που αποτύχουν, οι εργαζόμενοι θα απολυθούν.

Η ταινία με το κορυφαίο Casting όλων των εποχών. Τι να πει κανείς για το σύνολο των ηθοποιών; Απίστευτο πως δέχτηκε ο Al Pacino και όλοι οι άλλοι τόσο μικρούς ρόλους. Και όμως με αυτή την ταινία αποδεικνύεται ότι οι μεγάλοι ηθοποιοί κάνουν πίσω όταν πρόκειται για το καλό της τέχνης. Ο κάθε ηθοποιός στον κατάλληλο ρόλο. Ο Pacino είναι ο καλός πωλητής με την υπεροπτική συμπεριφορά, ο Harris ο φωνακλάς loser που χρησιμοποιεί την φωνή για να καλύψει την αδυναμία του, ο Lemmon ο οικογενειάρχης στα όρια της κατάρευσης πάλαι ποτέ πρωτοκλασσάτος πωλητής της εταιρίας, ο Spacey το γλυφτράκι που η δύναμη της λίγης εξουσίας του το έκανε υπερόπτη και προσβλητικό, ο Arkin ο αθόρυβος που ακολουθεί τους άλλους από φόβο και τέλος ο Baldwin ως macho αφεντικό που πουλάει αντρίλα και τσαμπουκά χαμένος μέσα στην επιτυχία του. Για εμένα η καλή σκηνοθεσία του Foley χάνει (πράγμα που προκαλεί έκπληξη) από το μέτριο σενάριο του μεγάλου Mamet. Να μην ξεχνάμε όμως ότι η ταινία βασίζεται σε θεατρικό έργο και ως τέτοιο έχει σκηνοθετηθεί. Το προτείνω ανεπιφύλακτα σε οποιονδήποτε δίνει μεγάλη σημασία στις ερμηνείες μιας ταινίας.Η ταινία είναι βασισμένη στο ομώνυμο θεατρικό του David Muppet και παραδίδει μαθήματα ζωής σε όσους αγνοούν τι θα συναντήσουν μπροστά τους. Η ταινία έδωσε μια υποψηφιότητα για Oscar Β’ Ανδρικού Ρόλου στον Al Pacino.  

Τεχνικά χαρακτηριστικα
Format                           : Matroska
File size                        : 4.37 GiB
Duration                         : 1h 40mn
Overall bit rate                 : 6 237 Kbps
Encoded date                     : UTC 2008-04-15 22:58:40
Writing application              : mkvmerge v2.1.0 ('Another Place To Fall') built on Aug 19 2007 13:40:07
Writing library                  : libebml v0.7.7 + libmatroska v0.8.1

Video
ID                               : 1
Format                           : AVC
Format/Info                      : Advanced Video Codec
Format profile                   : High@L4.1
Format settings, CABAC           : Yes
Format settings, ReFrames        : 4 frames
Codec ID                         : V_MPEG4/ISO/AVC
Duration                         : 1h 40mn
Bit rate                         : 5 850 Kbps
Width                            : 1 280 pixels
Height                           : 544 pixels
Display aspect ratio             : 2.35:1
Frame rate                       : 23.976 fps
Color space                      : YUV
Chroma subsampling               : 4:2:0
Bit depth                        : 8 bits
Scan type                        : Progressive
Bits/(Pixel*Frame)               : 0.350
Stream size                      : 4.01 GiB (92%)
Writing library                  : x264 core 58 r798M 17e5dac

Language                         : English

Audio
ID                               : 2
Format                           : AC-3
Format/Info                      : Audio Coding 3
Mode extension                   : CM (complete main)
Codec ID                         : A_AC3
Duration                         : 1h 40mn
Bit rate mode                    : Constant
Bit rate                         : 384 Kbps
Channel(s)                       : 6 channels
Channel positions                : Front: L C R, Side: L R, LFE
Sampling rate                    : 48.0 KHz
Bit depth                        : 16 bits
Compression mode                 : Lossy
Stream size                      : 275 MiB (6%)










http://turbobit.net/mhkhkgf1z3js/OIKOPEDA.ME.8EA.1992.part1.rar.html
http://turbobit.net/kbq1p3w9efkx/OIKOPEDA.ME.8EA.1992.part2.rar.html

Κωδικός αποσυμπίεσης:
thelwseires

Κατηγορία: ΑΛΛΑ ΚΑΝΑΛΙΑ (ΔΙΑΦΟΡΑ) |
Only registered users can add comments.
[ Registration | Login ]

Σύνδεση / Εγγραφή

Login:
Password:

Φιλικές Σελίδες

Αναζήτηση Σελίδας

Αναζήτηση Μέσω Google

EZ Archive