Saturday - Σάββατο, 17 April 2021, 12:44
Καλωσόρισες Guest | RSS

EZAccess Ελληνική Τηλεόραση

Κεντρική Σελίδα » 2010 » January - Ιανουάριος » 21 » ΟΝΕΙΡΟΠΑΓΙΔΑ S01E03 - Ant1.Oneiropagida.S01E03
ΟΝΕΙΡΟΠΑΓΙΔΑ S01E03 - Ant1.Oneiropagida.S01E03
ΟΝΕΙΡΟΠΑΓΙΔΑ - Ant1.Oneiropagida http://ezaccess.at.ua/

ΟΝΕΙΡΟΠΑΓΙΔΑ S01E03 - Ant1.Oneiropagida.S01E03

Σ’ ένα απομακρυσμένο νησί, κρυμμένη μέσα στα δέντρα, βρίσκεται η Ονειροπαγίδα.
Ο ιδανικός προορισμός για να βγουν αληθινά τα όνειρά σου…
Αυτός ο πέτρινος ξενώνας υποδέχεται την Κατερίνα όταν εκείνη ναυαγεί. Μαζί της ναυαγεί κι η ζωή που ήξερε μέχρι σήμερα.
Ο μπαμπάς της μέχρι χτες της πρόσφερε τα πάντα, εκτός από αυτά που είχε πραγματικά ανάγκη. Τώρα, από τη μια στιγμή στην άλλη, βρίσκεται μόνη και ξεκρέμαστη, χωρίς τα λεφτά του μπαμπά της.
Ο Πέτρος της προσφέρει μια θέση στον ξενώνα του και στον κόσμο του.
Σ’ αυτόν το μαγικό κόσμο τα πάντα μπορούν να συμβούν, αρκεί να τα ονειρευθείς. Και ο εφιάλτης της Κατερίνας θα γίνει σιγά – σιγά ένα απίστευτο, υπέροχο όνειρο…

ΣΚΗΝΟΘΕΣΙΑ: Όλγα Μαλέα
ΣΕΝΑΡΙΟ: Τίνα Καμπίτση
ΠΑΡΑΓΩΓΗ: Cinegram Film & TV
ΠΡΩΤΑΓΩΝΙΣΤΟΥΝ: Γιώργος Καραμίχος, Μαρία Σολωμού, Τάσος Χαλκιάς, Χριστίνα Τσάφου, Πέτρος Λαγούτης, Λίλη Τσεσματζόγλου
Στο ρόλο του Ξενοφώντα ο Τρύφων Καρατζάς
Έλενα Ασημακοπούλου, Παρθένα Χοροζίδου, Χάρης Γρηγορόπουλος, Αλμπέρτο Φάις, Έλενα Λιάσκα, Κωνσταντίνος Γαβαλάς
Και τα παιδιά: Μαρία Ρισκάκη και Σάββας Σαλίπας

ΟΝΕΙΡΟΠΑΓΙΔΑ S01E03 - Ant1.Oneiropagida.S01E03 http://ezaccess.at.ua/

General
Complete name : Ant1.Oneiropagida.S01E03_EZAccess.at.ua.avi
Format : AVI
Format/Info : Audio Video Interleave
File size : 350 MiB
Duration : 42mn 4s
Overall bit rate : 1162 Kbps
Writing application : VirtualDubMod 1.5.4.1 (build 2178/release)
Writing library : VirtualDubMod build 2178/release

Video
ID : 0
Format : MPEG-4 Visual
Format profile : Simple@L3
Format settings, BVOP : Yes
Format settings, QPel : No
Format settings, GMC : No warppoints
Format settings, Matrix : Custom
Codec ID : XVID
Codec ID/Hint : XviD
Duration : 42mn 4s
Bit rate : 1026 Kbps
Width : 576 pixels
Height : 432 pixels
Display aspect ratio : 4:3
Frame rate : 25.000 fps
Resolution : 8 bits
Colorimetry : 4:2:0
Scan type : Progressive
Bits/(Pixel*Frame) : 0.165
Stream size : 309 MiB (88%)
Writing library : XviD 1.1.0 Beta2 (UTC 2005-04-04)

Audio
ID : 1
Format : MPEG Audio
Format version : Version 1
Format profile : Layer 3
Mode : Joint stereo
Format_Settings_ModeExtension : MS Stereo
Codec ID : 55
Codec ID/Hint : MP3
Duration : 42mn 4s
Bit rate mode : Constant
Bit rate : 128 Kbps
Channel(s) : 2 channels
Sampling rate : 48.0 KHz
Stream size : 38.5 MiB (11%)
Alignment : Aligned on interleaves
Interleave, duration : 80 ms (2.00 video frames)
Interleave, preload duration : 504 ms
Writing library : LAME3.97
Encoding settings : -m j -V 4 -q 2 -lowpass 17 -b 128

Free DownLoad Link Below - Κατεβάστε εδώ:
Κατηγορία: Greek TV (ANT1) |
Only registered users can add comments.
[ Registration | Login ]

Σύνδεση / Εγγραφή

Login:
Password:

Φιλικές Σελίδες

Αναζήτηση Σελίδας

Αναζήτηση Μέσω Google

EZ Archive