Sunday - Κυριακή, 15 December 2019, 11:11
Καλωσόρισες Guest | RSS

EZAccess Ελληνική Τηλεόραση

Κεντρική Σελίδα » 2014 » March - Μάρτιος » 21 » ΟΡΓΙΣΜΕΝΑ ΝΙΑΤΑ 1987 «ΕΛΛΗΝΙΚΟΙ ΥΠΟΤΙΤΛΟΙ» - THE PRINCIPAL «GREEK SUBS»
ΟΡΓΙΣΜΕΝΑ ΝΙΑΤΑ 1987 «ΕΛΛΗΝΙΚΟΙ ΥΠΟΤΙΤΛΟΙ» - THE PRINCIPAL «GREEK SUBS»


ΟΡΓΙΣΜΕΝΑ ΝΙΑΤΑ 1987 «ΕΛΛΗΝΙΚΟΙ ΥΠΟΤΙΤΛΟΙ» - THE PRINCIPAL «GREEK SUBS»


 Ένας εκπαιδευτικός παίρνει δυσμενή μετάθεση σε κάποιο κακόφημο σχολείο των ΗΠΑ και βρίσκεται αντιμέτωπος με συμμορίες μαθητών που οπλοφορούν ή διακινούν ναρκωτικά.

Director: Christopher Cain
Writer: Frank Deese
Stars: James Belushi, Louis Gossett Jr., Rae Dawn



Format                                   : Matroska
Format version                           : Version 2
File size                                : 1.33 GiB
Duration                                 : 1h 45mn
Overall bit rate                         : 1 794 Kbps
Encoded date                             : UTC 2013-05-15 14:59:50
Writing application                      : mkvmerge v6.1.0 ('Old Devil') built on Mar  2 2013 14:32:37
Writing library                          : libebml v1.3.0 + libmatroska v1.4.0

Video
ID                                       : 1
Format                                   : AVC
Format/Info                              : Advanced Video Codec
Format profile                           : High@L4.1
Format settings, CABAC                   : Yes
Format settings, ReFrames                : 4 frames
Codec ID                                 : V_MPEG4/ISO/AVC
Duration                                 : 1h 45mn
Bit rate                                 : 1 600 Kbps
Width                                    : 688 pixels
Height                                   : 368 pixels
Display aspect ratio                     : 1.85:1
Frame rate mode                          : Constant
Frame rate                               : 25.000 fps
Color space                              : YUV
Chroma subsampling                       : 4:2:0
Bit depth                                : 8 bits
Scan type                                : Progressive
Bits/(Pixel*Frame)                       : 0.253
Stream size                              : 1.16 GiB (87%)
Writing library                          : x264 core 130 r2273 b3065e6



Audio
ID                                       : 2
Format                                   : AC-3
Format/Info                              : Audio Coding 3
Format profile                           : Dolby Digital
Mode extension                           : CM (complete main)
Format settings, Endianness              : Big
Codec ID                                 : A_AC3
Duration                                 : 1h 45mn
Bit rate mode                            : Constant
Bit rate                                 : 192 Kbps
Channel(s)                               : 2 channels
Channel positions                        : Front: L R
Sampling rate                            : 48.0 KHz
Bit depth                                : 16 bits
Compression mode                         : Lossy
Stream size                              : 145 MiB (11%)
Default                                  : Yes
Forced                                   : No



Κατεβάστε εδώ:
orgismenaniata1987.rar

Κωδικός αποσυμπίεσης των αρχείων rar:
thelwseires

Κατηγορία: ΑΛΛΑ ΚΑΝΑΛΙΑ (ΔΙΑΦΟΡΑ) |
Only registered users can add comments.
[ Registration | Login ]

Σύνδεση / Εγγραφή

Login:
Password:

Φιλικές Σελίδες

Αναζήτηση Σελίδας

Αναζήτηση Μέσω Google

EZ Archive