Friday - Παρασκευή, 16 April 2021, 20:20
Καλωσόρισες Guest | RSS

EZAccess Ελληνική Τηλεόραση

Κεντρική Σελίδα » 2013 » June - Ιούνιος » 17 » ΠΕΠΠΑ: ΤΟ ΓΟΥΡΟΥΝΑΚΙ - DVD3 - Η ΝΕΡΑΪΔΑ ΤΩΝ ΔΟΝΤΙΩΝ ΚΑΙ ΑΛΛΕΣ ΙΣΤΟΡΙΕΣ «ΜΕΤΑΓΛΩΤΤΙΣΜΕΝΟ ΣΤΑ ΕΛΛΗΝΙΚΑ» - PEPPA PIG DVD3 «GREEK AUDIO»
ΠΕΠΠΑ: ΤΟ ΓΟΥΡΟΥΝΑΚΙ - DVD3 - Η ΝΕΡΑΪΔΑ ΤΩΝ ΔΟΝΤΙΩΝ ΚΑΙ ΑΛΛΕΣ ΙΣΤΟΡΙΕΣ «ΜΕΤΑΓΛΩΤΤΙΣΜΕΝΟ ΣΤΑ ΕΛΛΗΝΙΚΑ» - PEPPA PIG DVD3 «GREEK AUDIO»


ΠΕΠΠΑ: ΤΟ ΓΟΥΡΟΥΝΑΚΙ - DVD3 - Η ΝΕΡΑΪΔΑ ΤΩΝ ΔΟΝΤΙΩΝ ΚΑΙ ΑΛΛΕΣ ΙΣΤΟΡΙΕΣ «ΜΕΤΑΓΛΩΤΤΙΣΜΕΝΟ ΣΤΑ ΕΛΛΗΝΙΚΑ» - PEPPA PIG
DVD3 «GREEK AUDIO»

Η Πέππα σε προσκαλεί σε νέες απίστευτες γουρουνο-περιπέτειες! Η αγαπημένη σου ηρωίδα κι η οικογένειά της γιορτάζουν τα γενέθλια της Μαμάς Γουρουνίτσας, κάνουν βόλτες με το καινούργιο τους αυτοκίνητο και απολαμβάνουν λαχταριστές τηγανίτες!

Τα DVD της αγαπημένης ηρωίδας είναι μεταγλωττισμένα, ωστόσο προσφέρουν και την επιλογη της Αγγλικής γλώσσας με σκοπό την ψυχαγωγική εξάσκηση των παιδιών.

Το DVD περιλαμβάνει τα επεισόδια:

1. Τα γενέθλια της Μαμάς Γουρουνίτσας
2. Η Νεράιδα των Δοντιών
3. Το καινούργιο αυτοκίνητο
4. Κυνήγι θησαυρού
5. ’ρρωστη
6. Χιόνι
7. Το κάστρο των ανέμων
8. Η ξαδέρφη μου η Χλόη
9. Τηγανίτες
10. Μπέιμπι σίτινγκ








Τεχνικά Χαρακτηριστικά/Πληροφορίες:

Video
Format : MPEG Video
Format version : Version 2
Format profile : Main@Main
Format settings, BVOP : Yes
Format settings, Matrix : Default
Format settings, GOP : M=3, N=12
Bit rate : 7 557 Kbps
Width : 720 pixels
Height : 576 pixels
Display aspect ratio : 16:9
Frame rate : 25.000 fps
Standard : PAL
Color space : YUV
Chroma subsampling : 4:2:0
Bit depth : 8 bits
Scan type : Interlaced
Scan order : Bottom Field First
Compression mode : Lossy
Bits/(Pixel*Frame) : 0.729
Time code of first frame : 00:00:00:00
Time code source : Group of pictures header
Stream size : 36.7 KiB (0%)

Audio
Format : AC-3
Format/Info : Audio Coding 3
Mode extension : CM (complete main)
Format settings, Endianness : Big
Muxing mode : DVD-Video
Bit rate mode : Constant
Bit rate : 192 Kbps
Channel(s) : 2 channels
Channel positions : Front: L R
Sampling rate : 48.0 KHz
Bit depth : 16 bits
Compression mode : Lossy
Delay relative to video : -80ms
Stream size : 7.35 MiB (2%)



PeppaGR3.iso

Κατηγορία: Greek TV (STAR) |
Only registered users can add comments.
[ Registration | Login ]

Σύνδεση / Εγγραφή

Login:
Password:

Φιλικές Σελίδες

Αναζήτηση Σελίδας

Αναζήτηση Μέσω Google

EZ Archive