Wednesday - Τετάρτη, 14 April 2021, 21:16
Καλωσόρισες Guest | RSS

EZAccess Ελληνική Τηλεόραση

Κεντρική Σελίδα » 2013 » April - Απρίλιος » 7 » PINGU (ΣΥΛΛΟΓΗ - 130 ΕΠΕΙΣΟΔΙΑ) - PINGU 130 EPISODES «ΜΕΤΑΓΛΩΤΤΙΣΜΕΝΑ ΣΤΑ ΕΛΛΗΝΙΚΑ»
PINGU (ΣΥΛΛΟΓΗ - 130 ΕΠΕΙΣΟΔΙΑ) - PINGU 130 EPISODES «ΜΕΤΑΓΛΩΤΤΙΣΜΕΝΑ ΣΤΑ ΕΛΛΗΝΙΚΑ»


PINGU (ΣΥΛΛΟΓΗ - 130 ΕΠΕΙΣΟΔΙΑ) -
PINGU  130 EPISODES «ΜΕΤΑΓΛΩΤΤΙΣΜΕΝΑ ΣΤΑ ΕΛΛΗΝΙΚΑ»

130 Επεισόδια με τις περιπέτειες του μικρού Πινγκού και της οικογένειας του.
       
Έτος:     1986-2006
Διάρκεια:     5' λεπτά
Κατηγορία:     Κωμωδία για παιδιά
Πρωταγωνιστές:     Carlo Bonomi, Marcello Magni, David Sant
Σκηνοθεσία:     Silvio Mazzola







General
Format                           : MPEG-4
Format profile                   : Base Media / Version 2
Codec ID                         : mp42
File size                        : 24.2 MiB
Duration                         : 5mn 14s
Overall bit rate                 : 646 Kbps
Encoded date                     : UTC 2008-03-15 20:12:21
Tagged date                      : UTC 2008-03-15 20:15:36
Writing application              : HandBrake 0.9.2 2008021900

Video
ID                               : 1
Format                           : AVC
Format/Info                      : Advanced Video Codec
Format profile                   : Baseline@L3.0
Format settings, CABAC           : No
Format settings, ReFrames        : 1 frame
Codec ID                         : avc1
Codec ID/Info                    : Advanced Video Coding
Duration                         : 5mn 14s
Bit rate mode                    : Variable
Bit rate                         : 512 Kbps
Width                            : 480 pixels
Height                           : 368 pixels
Display aspect ratio             : 4:3
Frame rate mode                  : Variable
Frame rate                       : 29.970 fps
Minimum frame rate               : 29.963 fps
Maximum frame rate               : 29.981 fps
Color space                      : YUV
Chroma subsampling               : 4:2:0
Bit depth                        : 8 bits
Scan type                        : Progressive
Bits/(Pixel*Frame)               : 0.097
Stream size                      : 19.3 MiB (80%)
Writing library                  : x264 core 58 svn-736M

Audio
ID                               : 2
Format                           : AAC
Format/Info                      : Advanced Audio Codec
Format profile                   : LC
Codec ID                         : 40
Duration                         : 5mn 14s
Bit rate mode                    : Variable
Bit rate                         : 128 Kbps
Maximum bit rate                 : 159 Kbps
Channel(s)                       : 2 channels
Channel positions                : Front: L R
Sampling rate                    : 48.0 KHz
Compression mode                 : Lossy
Stream size                      : 4.80 MiB (20%)
Encoded date                     : UTC 2008-03-15 20:12:21
Tagged date                      : UTC 2008-03-15 20:15:36







http://turbobit.net/4k2inh7n3i3i/NIA-NIA-130EPS.part1.rar.html
http://turbobit.net/q1hgh8khbgg9/NIA-NIA-130EPS.part2.rar.html

ή

http://uploaded.net/file/ovd7y9rl/NIA-NIA-130EPS.part1.rar
http://uploaded.net/file/7h58bjv5/NIA-NIA-130EPS.part2.rar


Κωδικός αποσυμπίεσης:
thelwseires
Κατηγορία: ΑΛΛΑ ΚΑΝΑΛΙΑ (ΔΙΑΦΟΡΑ) |
Only registered users can add comments.
[ Registration | Login ]

Σύνδεση / Εγγραφή

Login:
Password:

Φιλικές Σελίδες

Αναζήτηση Σελίδας

Αναζήτηση Μέσω Google

EZ Archive