Monday - Δευτέρα, 12 April 2021, 14:03
Καλωσόρισες Guest | RSS

EZAccess Ελληνική Τηλεόραση

Κεντρική Σελίδα » 2013 » September - Σεπτέμβριος » 24 » ΠΟΚΕΜΟΝ ΟΛΟΚΛΗΡΩΜΕΝΗ 1 ΣΕΖΟΝ (ΕΠΕΙΣΟΔΙΑ 01-82 ) - POKEMON COMPLETE SEASON 1 "INDIGO LEAGUE" «ΜΕΤΑΓΛΩΤΤΙΣΜΕΝΟ ΣΤΑ ΕΛΛΗΝΙΚΑ»
ΠΟΚΕΜΟΝ ΟΛΟΚΛΗΡΩΜΕΝΗ 1 ΣΕΖΟΝ (ΕΠΕΙΣΟΔΙΑ 01-82 ) - POKEMON COMPLETE SEASON 1 "INDIGO LEAGUE" «ΜΕΤΑΓΛΩΤΤΙΣΜΕΝΟ ΣΤΑ ΕΛΛΗΝΙΚΑ»


ΠΟΚΕΜΟΝ ΟΛΟΚΛΗΡΩΜΕΝΗ 1 ΣΕΖΟΝ (
ΕΠΕΙΣΟΔΙΑ 01-82 ) - POKEMON COMPLETE SEASON 1 "INDIGO LEAGUE" «ΜΕΤΑΓΛΩΤΤΙΣΜΕΝΟ ΣΤΑ ΕΛΛΗΝΙΚΑ»

Τα Πόκεμον είναι μια δημοφιλής σειρά βιντεοπαιχνιδιών αλλά και κινουμένων σχεδίων ανιμέ. Όλα άρχισαν όταν ο Satoshi Tajiri σκέφτηκε την ιδέα να δημιουργήσει ένα παιχνίδι για το Game Boy της Nintendo όπου "ζωντανά" πλάσματα θα μπορούσαν να πιάνονται και να ανταλλάσσονται. Αυτή ήταν η γέννηση των Πόκεμον. Το ανιμέ Πόκεμον προβλήθηκε στην Ιαπωνία για πρώτη φορά ένα χρόνο περίπου μετά το βιντεοπαιχνίδι και δεν άργησε πολύ να φτάσει σε πολλές άλλες χώρες στις οποίες έκανε επίσης μεγάλη επιτυχία.

 Σε αυτή τη σεζόν ένας αρχάριος εκπεδευτής πόκεμον ο Ash Ketchum και το πόκεμον του Pikachu, καθώς και οι φίλοι του Misty και Brock ταξιδεύουν σ' ολόκληρη την περιοχή Kanto.



Format                                   : AVI
Format/Info                              : Audio Video Interleave
File size                                : 207 MiB
Duration                                 : 21mn 40s
Overall bit rate                         : 1 337 Kbps
Writing library                          : VirtualDub build 32842/release

Video
ID                                       : 0
Format                                   : MPEG-4 Visual
Format profile                           : Simple@L1
Format settings, BVOP                    : No
Format settings, QPel                    : No
Format settings, GMC                     : No warppoints
Format settings, Matrix                  : Default (H.263)
Codec ID                                 : XVID
Codec ID/Hint                            : XviD
Duration                                 : 21mn 40s
Bit rate                                 : 1 199 Kbps
Width                                    : 640 pixels
Height                                   : 480 pixels
Display aspect ratio                     : 4:3
Frame rate                               : 23.976 fps
Color space                              : YUV
Chroma subsampling                       : 4:2:0
Bit depth                                : 8 bits
Scan type                                : Progressive
Compression mode                         : Lossy
Bits/(Pixel*Frame)                       : 0.163
Stream size                              : 186 MiB (90%)
Writing library                          : Lavc52.41.0

Audio
ID                                       : 1
Format                                   : MPEG Audio
Format version                           : Version 1
Format profile                           : Layer 3
Mode                                     : Joint stereo
Mode extension                           : MS Stereo
Codec ID                                 : 55
Codec ID/Hint                            : MP3
Duration                                 : 21mn 40s
Bit rate mode                            : Constant
Bit rate                                 : 128 Kbps
Channel(s)                               : 2 channels
Sampling rate                            : 48.0 KHz
Compression mode                         : Lossy
Stream size                              : 19.9 MiB (10%)
Alignment                                : Split accross interleaves
Interleave, duration                     : 42 ms (1.00 video frame)
Interleave, preload duration             : 500 ms

Κατεβάστε εδώ:

http://turbobit.net/8g58xzgbfbix/PIKAABC.S1.part01.rar.html
http://turbobit.net/mpp0zexmk3np/PIKAABC.S1.part02.rar.html
http://turbobit.net/zpfchbzxjg8p/PIKAABC.S1.part03.rar.html
http://turbobit.net/xaj4mtnlwa8i/PIKAABC.S1.part04.rar.html
http://turbobit.net/a2s8ctyd1wlf/PIKAABC.S1.part05.rar.html
http://turbobit.net/4i4dnhi6fbpm/PIKAABC.S1.part06.rar.html
http://turbobit.net/feb8j58kwfb9/PIKAABC.S1.part07.rar.html
http://turbobit.net/qi7dkiigq89q/PIKAABC.S1.part08.rar.html
http://turbobit.net/0t03ydozso6d/PIKAABC.S1.part09.rar.html
http://turbobit.net/hlhvmbbpfekh/PIKAABC.S1.part10.rar.html
http://turbobit.net/r47zkfrfgwox/PIKAABC.S1.part11.rar.html
http://turbobit.net/wp6adxaeo88v/PIKAABC.S1.part12.rar.html
http://turbobit.net/cxdgwxt8g4fw/PIKAABC.S1.part13.rar.html
http://turbobit.net/u75nw6kgegla/PIKAABC.S1.part14.rar.html

Κωδικός αποσυμπίεσης των αρχείων rar:
thelwseires

Κατηγορία: ΑΛΛΑ ΚΑΝΑΛΙΑ (ΔΙΑΦΟΡΑ) |
Only registered users can add comments.
[ Registration | Login ]

Σύνδεση / Εγγραφή

Login:
Password:

Φιλικές Σελίδες

Αναζήτηση Σελίδας

Αναζήτηση Μέσω Google

EZ Archive