Saturday - Σάββατο, 17 April 2021, 03:42
Καλωσόρισες Guest | RSS

EZAccess Ελληνική Τηλεόραση

Κεντρική Σελίδα » 2014 » March - Μάρτιος » 20 » *ΠΡΕΜΙΕΡΑ* ΟΛΟΙ ΟΙ ΚΑΛΟΙ ΧΩΡΑΝΕ S01E01 - Etv.Oloi.Oi.Kaloi.Xwrane.S0E01.DVB-T.N.M.S
*ΠΡΕΜΙΕΡΑ* ΟΛΟΙ ΟΙ ΚΑΛΟΙ ΧΩΡΑΝΕ S01E01 - Etv.Oloi.Oi.Kaloi.Xwrane.S0E01.DVB-T.N.M.S


*ΠΡΕΜΙΕΡΑ* ΟΛΟΙ ΟΙ ΚΑΛΟΙ ΧΩΡΑΝΕ S01E01 - Etv.Oloi.Oi.Kaloi.Xwrane.S0E01.DVB-T.N.M.S


Σε ένα κουτούκι γεμάτο φίλους με ιστορίες που αφηγούνται αξίζει να τις ακούσει κανείς…
Αναμνήσεις που έχουν τη μυρωδιά του χθες, λόγια, μουσική, μπύρα ζ ανοίγουν παράθυρο στο αύριο.
Πάντα υπάρχει ένα καλό κουτούκι για να συναντηθούν οι παρέες και να προσκαλέσουν όλους εσάς γιατί  «Όλοι οι Καλοί Χωράνε».
Ο Κώστας Χαρδαβέλλας ετοιμάζει μέσα σε ένα ζεστό και ξεχωριστό "κουτούκι” ξεχωριστές μουσικές προτάσεις με κέφι και ζεστή ατμόσφαιρα και σας προσκαλεί μαζί του να τραγουδήσετε, να γελάσατε να συγκινηθείτε αλλά και να θυμηθείτε όλα αυτά που αξίζει να μας κάνουν να λέμε ότι Όλοι οι καλοί χωράνε.

Παρουσίαση: Κώστας Χαρδαβέλλας
Σκηνοθεσία: Κώστας Υφαντής
Οργάνωση Παραγωγής: Μιχάλης Κοντογιάννης
Διεύθυνση  Παραγωγής: Χάρης Εργατίδης
Σκηνογραφία: Μιχάλης Αθανασιάδης

*ΠΡΕΜΙΕΡΑ* ΟΛΟΙ ΟΙ ΚΑΛΟΙ ΧΩΡΑΝΕ S01E01 - Etv.Oloi.Oi.Kaloi.Xwrane.S0E01.DVB-T.N.M.S

General
Format : AVI
Format/Info : Audio Video Interleave
Format profile : OpenDML
File size : 1.49 GiB
Duration : 2h 5mn
Overall bit rate : 1 709 Kbps

Video
ID : 0
Format : MPEG-4 Visual
Format profile : Simple@L3
Format settings, BVOP : No
Format settings, QPel : No
Format settings, GMC : No warppoints
Format settings, Matrix : Default (H.263)
Codec ID : XVID
Codec ID/Hint : XviD
Duration : 2h 5mn
Bit rate : 1 500 Kbps
Width : 624 pixels
Height : 352 pixels
Display aspect ratio : 16:9
Frame rate : 25.000 fps
Color space : YUV
Chroma subsampling : 4:2:0
Bit depth : 8 bits
Scan type : Progressive
Compression mode : Lossy
Bits/(Pixel*Frame) : 0.273
Stream size : 1.31 GiB (88%)

Audio
ID : 1
Format : MPEG Audio
Format version : Version 1
Format profile : Layer 3
Mode : Joint stereo
Mode extension : MS Stereo
Codec ID : 55
Codec ID/Hint : MP3
Duration : 2h 5mn
Bit rate mode : Constant
Bit rate : 192 Kbps
Channel(s) : 2 channels
Sampling rate : 44.1 KHz
Compression mode : Lossy
Stream size : 172 MiB (11%)
Alignment : Aligned on interleaves
Interleave, duration : 26 ms (0.65 video frame)
Writing library : LAME3.98.2

Κατεβάστε εδώ:
Etv.Oloi.Oi.Kaloi.Xwrane.S0E01.DVB-T.N.M.S.avi

Κατηγορία: ΑΛΛΑ ΚΑΝΑΛΙΑ (ΔΙΑΦΟΡΑ) |
Only registered users can add comments.
[ Registration | Login ]

Σύνδεση / Εγγραφή

Login:
Password:

Φιλικές Σελίδες

Αναζήτηση Σελίδας

Αναζήτηση Μέσω Google

EZ Archive