Saturday - Σάββατο, 17 April 2021, 23:13
Καλωσόρισες Guest | RSS

EZAccess Ελληνική Τηλεόραση

Κεντρική Σελίδα » 2013 » September - Σεπτέμβριος » 9 » SHE-RA: PRINCESS OF POWER (1985) 20 ΕΠΕΙΣΟΔΙΑ «ΜΕΤΑΓΛΩΤΤΙΣΜΕΝΟ ΣΤΑ ΕΛΛΗΝΙΚΑ»
SHE-RA: PRINCESS OF POWER (1985) 20 ΕΠΕΙΣΟΔΙΑ «ΜΕΤΑΓΛΩΤΤΙΣΜΕΝΟ ΣΤΑ ΕΛΛΗΝΙΚΑ»


SHE-RA: PRINCESS OF POWER (1985) 20 ΕΠΕΙΣΟΔΙΑ «ΜΕΤΑΓΛΩΤΤΙΣΜΕΝΟ ΣΤΑ ΕΛΛΗΝΙΚΑ»


 Η ΑΝΤΟΡΑ ΕΙΝΑΙ ΜΙΑ ΕΠΑΝΑΣΤΑΤΡΙΑ ΠΟΥ ΟΤΑΝ ΕΧΕΙ ΤΟ ΣΠΑΘΙ ΕΠΙΚΑΛΕΙΤΑΙ ΤΗΝ ΔΥΝΑΜΗ ΤΟΥ ΚΑΙ ΓΙΝΕΤΑΙ Η SHE-RA ΜΙΑ ΔΥΝΑΤΗ ΠΟΛΕΜΗΣΤΡΙΑ ΠΟΥ ΜΑΖΙ ΜΕ ΤΟΥΣ ΕΠΑΝΑΣΤΑΤΕΣ ΠΡΟΣΠΑΘΟΥΝ ΝΑ ΣΤΑΜΑΤΗΣΟΥΝ ΤΩΝ ΧΟΡΝΤΑΚ ΚΑΙ ΤΟΥΣ ΑΚΟΛΟΥΘΟΥΣ ΤΟΥ ΚΑΙ ΝΑ ΦΕΡΟΥΝ ΤΗΝ ΕΙΡΗΝΗ ΣΤΩΝ ΤΟΠΟ ΤΟΥΣ.




ΕΙΚΟΝΑ
Format: AVC
Format / Info: Advanced Βίντεο Codec
Μορφή προφίλ: Main@L2.1
Μορφή ρυθμίσεων, CABAC: Ναι
Μορφή ρυθμίσεων, reframes: 2 καρέ
Codec ID: avc1
ID Codec / Info: Advanced Video Coding
Διάρκεια: 20mn 14s
Ρυθμός μετάδοσης bit: 1 306 Kbps
Πλάτος: 512 εικονοστοιχεία
Ύψος: 384 εικονοστοιχεία
Λόγος εικόνας: 4:3
Πλαίσιο λειτουργίας συντελεστής: Constant
Ρυθμός καρέ: 25,000 fps
Χώρο Χρώμα: YUV
Chroma υποδειγματοληψία: 4:02:00
Βάθος bit: 8 bits
Τύπος σάρωσης: Προοδευτική
Bits / (Pixel * Frame): 0,266
Stream size: 189 MiB (89%)
Γράφοντας βιβλιοθήκη: x264 πυρήνος 112 r1834 a51816a
ΗΧΟΣ
Format: AAC
Format / Info: Advanced Audio Codec
Μορφή προφίλ: LC
Codec ID: 40
Διάρκεια: 20mn 14s
Bit Λειτουργία ρυθμού: Μεταβλητή
Ρυθμός μετάδοσης bit: 152 Kbps
Κανάλι (α): 2 κανάλια
Θέσεις καναλιών: Front: LR
Ρυθμός δειγματοληψίας: 44,1 KHz
Stream size: 22,0 MiB (10%)

Κατεβάστε εδώ:

http://turbobit.net/oc8s69rsrs7m/AYTH-RA.20.EPS.part1.rar.html
http://turbobit.net/evgcru3b5p2s/AYTH-RA.20.EPS.part2.rar.html
http://turbobit.net/d2r2yoi9jpfz/AYTH-RA.20.EPS.part3.rar.html
http://turbobit.net/53wmibbz4u0f/AYTH-RA.20.EPS.part4.rar.html


Κατηγορία: ΑΛΛΑ ΚΑΝΑΛΙΑ (ΔΙΑΦΟΡΑ) |
Only registered users can add comments.
[ Registration | Login ]

Σύνδεση / Εγγραφή

Login:
Password:

Φιλικές Σελίδες

Αναζήτηση Σελίδας

Αναζήτηση Μέσω Google

EZ Archive