Sunday - Κυριακή, 15 December 2019, 11:17
Καλωσόρισες Guest | RSS

EZAccess Ελληνική Τηλεόραση

Κεντρική Σελίδα » 2014 » March - Μάρτιος » 21 » ΤΟ ΑΣΠΡΟ ΚΟΑΛΑ (2012) «ΜΕΤΑΓΛΩΤΤΙΣΜΕΝΟ ΣΤΑ ΕΛΛΗΝΙΚΑ» - OUTBACK / KOALA KID «GREEK AUDIO»
ΤΟ ΑΣΠΡΟ ΚΟΑΛΑ (2012) «ΜΕΤΑΓΛΩΤΤΙΣΜΕΝΟ ΣΤΑ ΕΛΛΗΝΙΚΑ» - OUTBACK / KOALA KID «GREEK AUDIO»


ΤΟ ΑΣΠΡΟ ΚΟΑΛΑ (2012) «ΜΕΤΑΓΛΩΤΤΙΣΜΕΝΟ ΣΤΑ ΕΛΛΗΝΙΚΑ» - OUTBACK / KOALA KID «GREEK AUDIO»


Eλληνικός Τίτλος : Το άσπρο κοάλα
Σκηνοθέτης: Kyung Ho Lee
Σεναριογράφος: Timothy Wayne Peternel, Chris Denk, Scott Clevenger
Χώρα : ΗΠΑ
Copyright :2012
Διάρκεια : 82'

Ετοιμαστείτε για απίθανες περιπέτειες στα βάθη της Αυστραλιανής ερήμου! Ένα κάτασπρο κοάλα, ο Τζονι, που τον
κοροϊδεύουν όλοι για το χρώμα του, ξεκινά ένα ταξίδι μαζί με το τσίρκο που περιοδεύει. Στην παρέα του είναι ο
διάβολος της Τασμανίας και ο Χίγκενς, μια μαϊμού-φωτογράφος, οι οποίοι προσπαθούν να εντοπίσουν ταλέντα.



Format/Info : Audio Video Interleave
Format profile : OpenDML
File size : 1.16 GiB
Duration : 1h 22mn
Overall bit rate : 2 023 Kbps
Movie name : OUTBACK.Title2
Writing application : Lavf54.63.104
Original source form/Name : OUTBACK
Video
ID : 0
Format : AVC
Format/Info : Advanced Video Codec
Format profile : Main@L3.0
Format settings, CABAC : Yes
Format settings, ReFrames : 1 frame
Codec ID : H264
Duration : 1h 22mn
Bit rate : 1 818 Kbps
Width : 720 pixels
Height : 404 pixels
Display aspect ratio : 16:9
Frame rate : 25.000 fps
Color space : YUV
Chroma subsampling : 4:2:0
Bit depth : 8 bits
Scan type : Progressive
Bits/(Pixel*Frame) : 0.250
Stream size : 1.04 GiB (90%)
Writing library : x264 core
Color primaries : BT.601-6 525, BT.1358 525, BT.1700 NTSC, SMPTE 170M
Transfer characteristics : BT.709-5, BT.1361
Matrix coefficients : BT.601-6 525, BT.1358 525, BT.1700 NTSC, SMPTE 170M
Audio
ID : 1
Format : AC-3
Format/Info : Audio Coding 3
Mode extension : CM (complete main)
Codec ID : 2000
Duration : 1h 22mn
Bit rate mode : Constant
Bit rate : 192 Kbps
Channel(s) : 2 channels
Channel positions : Front: L R
Sampling rate : 48.0 KHz
Bit depth : 16 bits
Compression mode : Lossy
Stream size : 17.7 MiB (1%)
Alignment : Aligned on interleaves
Interleave, duration : 203 ms (5.09 video frames)




Κατεβάστε εδώ:
TOASPROKOALA2012.avi

Κατηγορία: ΑΛΛΑ ΚΑΝΑΛΙΑ (ΔΙΑΦΟΡΑ) |
Only registered users can add comments.
[ Registration | Login ]

Σύνδεση / Εγγραφή

Login:
Password:

Φιλικές Σελίδες

Αναζήτηση Σελίδας

Αναζήτηση Μέσω Google

EZ Archive