Thursday - Πέμπτη, 15 April 2021, 10:40
Καλωσόρισες Guest | RSS

EZAccess Ελληνική Τηλεόραση

Κεντρική Σελίδα » 2013 » April - Απρίλιος » 19 » ΤΟ ΕΞΠΡΕΣ ΤΟΥ ΜΕΣΟΝΥΧΤΙΟΥ - Midnight Express (1978) «ΕΝΣΩΜΑΤΩΜΕΝΟΙ ΕΛΛΗΝΙΚΟΙ ΥΠΟΤΙΤΛΟΙ»
ΤΟ ΕΞΠΡΕΣ ΤΟΥ ΜΕΣΟΝΥΧΤΙΟΥ - Midnight Express (1978) «ΕΝΣΩΜΑΤΩΜΕΝΟΙ ΕΛΛΗΝΙΚΟΙ ΥΠΟΤΙΤΛΟΙ»


ΤΟ ΕΞΠΡΕΣ ΤΟΥ ΜΕΣΟΝΥΧΤΙΟΥ - Midnight Express (1978) BDRip 720p. XviD AC3 «ΕΝΣΩΜΑΤΩΜΕΝΟΙ ΕΛΛΗΝΙΚΟΙ ΥΠΟΤΙΤΛΟΙ»


Αγγλικός τίτλος: Midnight Express
Ελληνικός τίτλος: ΤΟ ΕΞΠΡΕΣ ΤΟΥ ΜΕΣΟΝΥΧΤΙΟΥ
Είδος ταινίας: Biography | Crime | Drama
Διάλογοι: English
Υπότιτλοι: Ελληνικοί (Ενσωματωμένοι)
Παραγωγή: Casablanca Filmworks
Σκηνοθεσία: Alan Parker
Σενάριο: Billy Hayes (book), William Hoffer (book)
Ηθοποιοί: Brad Davis, Irene Miracle, Bo Hopkins, Paolo Bonacelli, Paul L. Smith, Randy Quaid, Norbert Weisser, John Hurt, Mike Kellin, Franco Diogene, Michael Ensign
Διάρκεια: 120'

Ένας νεαρός Αμερικανός τουρίστας συλλαμβάνεται στην Κωνσταντινούπολη για κατοχή χασίς και καταδικάζεται σε φυλάκιση τεσσάρων ετών. Στην φυλακή θα γνωρίσει την απόλυτη ψυχική και σωματική καταρράκωση.




Τούρκικη φυλακή. Ο όρος παραπέμπει άμεσα σε ένα φριχτό κολαστήριο όπου καταποντίζονται οι ψυχές, αναιρείται κάθε ατομικό δικαίωμα, χάνεται και η τελευταία ρανίδα ελπίδας. Η συσχέτιση δεν αποτελεί τυχαίο γεγονός. Ιδίως μετά το 1978 οπότε και προβλήθηκε η ταινία του Alan Parker, η πεποίθηση αυτή αποτυπώθηκε στη συνείδηση του πολιτισμένου κόσμου. Το σενάριο μπορεί να βασίστηκε στην καταγραφή μιας αληθινής ιστορίας, ωστόσο η αντίπερα –θιγόμενη- πλευρά κατηγόρησε σκηνοθέτη και σεναριογράφο για την προπαγανδιστική υφή του φιλμ. Ίσως και να μην είχαν άδικο. Όσο και αν δε μας ενοχλεί –ή μας ευχαριστεί- ως Έλληνες το γεγονός της διαπόμπευσης όχι μόνο ενός σωφρονιστικού συστήματος, αλλά ενός ολόκληρου λαού που έχει προκαλέσει κατά το παρελθόν πολλά δεινά στην πατρίδα μας, το γεγονός παραμένει: Η ταινία αποτελεί γνήσιο τέκνο του σεναριογράφου Oliver Stone, που έχει προσθέσει σε αυτή όλα τα στοιχεία της προσωπικής του κινηματογραφικής τεχνικής: Πάντοτε μονόπλευρος και προβοκατόρικα κατηγορητικός, ο Stone παρουσιάζει μια ιστορία-μετάλλαξη της αυτοβιογραφία του Billy Hayes, έχοντας διαστρεβλώσει πολλά από τα γραφόμενά του σε μια προσπάθεια συναισθηματικής υπερφόρτισης του κοινού. Με σκηνές που προκαλούν σοκ ακόμη και τριάντα χρόνια μετά και τη συμβολή της υποβλητικής οσκαρικής μουσικής υπόκρουσης του Giorgio Moroder, η ταινία κατορθώνει να προκαλέσει με κάθε μέσο που διαθέτει την προσήλωση του θεατή, μετατρέποντας ταυτόχρονα τον πρωταγωνιστή σε συμπαθή φυσιογνωμία παρά το αδίκημα της εμπορίας ναρκωτικών. Θέτοντας ταυτόχρονα ερωτήματα περί «υπερβολικού σωφρονισμού», ο Parker συνθέτει ένα σκληρό και σαφώς πιο επίπονο ανάλογο του Shawshank Redemption, αδιαφορώντας για την πολιτική ορθότητα και τον καθωσπρεπισμό των καρέ του. Άλλωστε, η ιστορία καταγράφεται από την οπτική γωνία του παθόντα Billy Hayes (Brad Davis), γεγονός που επιτρέπει –ή ακόμη και επιβάλλει- τη συστηματική λοξοδρόμηση σε συναισθηματικές υπερβολές, δημιουργώντας ταυτόχρονα το απόλυτο άλλοθι για τα πολιτικά–αντιμουσουλμανικά- μηνύματα της ταινίας, που είχε την ατυχία να συμπέσει χρονικά με τον εξαίσιο Ελαφοκηνυγό και να χάσει το βασικό Όσκαρ του 1978.




General

Format                                   : AVI
Format/Info                              : Audio Video Interleave
Format profile                           : OpenDML
File size                                : 3.59 GiB
Duration                                 : 2h 0mn
Overall bit rate                         : 4 252 Kbps
Writing application                      : VirtualDubMod 1.5.10.2 (build 2542/release)
Writing library                          : VirtualDubMod build 2542/release

Video

ID                                       : 0
Format                                   : MPEG-4 Visual
Format profile                           : Advanced Simple@L5
Format settings, BVOP                    : 1
Format settings, QPel                    : No
Format settings, GMC                     : No warppoints
Format settings, Matrix                  : Default (H.263)
Muxing mode                              : Packed bitstream
Codec ID                                 : XVID
Codec ID/Hint                            : XviD
Duration                                 : 2h 0mn
Bit rate                                 : 3 796 Kbps
Width                                    : 1 280 pixels
Height                                   : 688 pixels
Display aspect ratio                     : 1.85:1
Frame rate                               : 23.976 fps
Color space                              : YUV
Chroma subsampling                       : 4:2:0
Bit depth                                : 8 bits
Scan type                                : Progressive
Compression mode                         : Lossy
Bits/(Pixel*Frame)                       : 0.180
Stream size                              : 3.21 GiB (89%)
Writing library                          : XviD 64

Audio

ID                                       : 1
Format                                   : AC-3
Format/Info                              : Audio Coding 3
Mode extension                           : CM (complete main)
Format settings, Endianness              : Big
Codec ID                                 : 2000
Duration                                 : 2h 0mn
Bit rate mode                            : Constant
Bit rate                                 : 448 Kbps
Channel(s)                               : 6 channels
Channel positions                        : Front: L C R, Side: L R, LFE
Sampling rate                            : 48.0 KHz
Bit depth                                : 16 bits
Compression mode                         : Lossy
Stream size                              : 388 MiB (11%)
Alignment                                : Split accross interleaves
Interleave, duration                     : 64 ms (1.53 video frames)
Interleave, preload duration             : 500 ms



http://4.bp.blogspot.com/_7wsQzULWIwo/SwALMl0nnQI/AAAAAAAACLs/Hm8u1Jqo0YY/s400/download-orig.png

E3pres.Mesovyxtiou.1978..avi

ή

E3pres.Mesovyxtiou.1978..avi

Κατηγορία: ΑΛΛΑ ΚΑΝΑΛΙΑ (ΔΙΑΦΟΡΑ) |
Only registered users can add comments.
[ Registration | Login ]

Σύνδεση / Εγγραφή

Login:
Password:

Φιλικές Σελίδες

Αναζήτηση Σελίδας

Αναζήτηση Μέσω Google

EZ Archive