Thursday - Πέμπτη, 13 August 2020, 22:32
Καλωσόρισες Guest | RSS

EZAccess Ελληνική Τηλεόραση

Κεντρική Σελίδα » 2014 » October - Οκτώβριος » 5 » ΤΖΟ Ο ΚΑΤΑΠΛΗΚΤΙΚΟΣ (1971) «ΕΛΛΗΝΙΚΟΙ ΥΠΟΤΙΤΛΟΙ» - Louis de Funes, Jo 1971 «GREEK SUBS»
ΤΖΟ Ο ΚΑΤΑΠΛΗΚΤΙΚΟΣ (1971) «ΕΛΛΗΝΙΚΟΙ ΥΠΟΤΙΤΛΟΙ» - Louis de Funes, Jo 1971 «GREEK SUBS»



ΤΖΟ Ο ΚΑΤΑΠΛΗΚΤΙΚΟΣ (1971) «ΕΛΛΗΝΙΚΟΙ ΥΠΟΤΙΤΛΟΙ»  - Louis de Funes, Jo 1971 «GREEK SUBS»

ΕΛΛΗΝΙΚΟΣ ΤΙΤΛΟΣ: ΤΖΟ Ο ΚΑΤΑΠΛΗΚΤΙΚΟΣ
ΕΙΔΟΣ: ΑΣΤΥΝΟΜΙΚΗ ΚΩΜΩΔΙΑ
ΣΕΝΑΡΙΟ: Claude Magnier, Alec Coppel, Jacques Vilfrid, Jean Girault
ΣΚΗΝΟΘΕΣΙΑ: Jean Girault  
ΜΟΥΣΙΚΗ: Raymond Lefevre
ΠΑΙΖΟΥΝ: Louis de Funes, Claude Gensac, Michel Galabru, Bernard Blier, Guy Trejan, Ferdy Mayne, Yvonne Clech, Florence Blot  K.ά
ΕΤΟΣ ΚΥΚΛΟΦΟΡΙΑΣ: 1971
ΔΙΑΡΚΕΙΑ: 82 min
ΓΛΩΣΣΑ: Γαλλικά
ΥΠΟΤΙΤΛΟΙ: Ελληνικοί σε ξεχωριστό αρχείο (srt)

ΥΠΟΘΕΣΗ
Υπό το πρόσχημα της έρευνας για το επόμενο αστυνομικό του έργο, ο συγγραφέας Αντουάν Μπρισμπάρντ συμβουλεύεται τον φίλο και δικηγόρο του Αντριέν Κολάς για το πώς να διαπράξει τον τέλειο φόνο.
Εδώ και αρκετό καιρό, ο Αντουάν υπήρξε θύμα του αδίστακτου εκβιαστή, του κυρίου Τζο, και τελικά αποφάσισε να αναλάβει δράση για εμποδίσει τον Τζο να αποκάλυψει το σκανδαλώδες παρελθόν της  αγαπημένης του γυναίκας.
Ένα βράδυ, ο Αντουάν κανονίζει να τον επισκευτεί ο Τζο, λέγοντας ότι θα τον πληρώσει, με σκοπό να τον σκοτώσει και να θάψει το πτώμα του στα θεμέλια για το νέο κιόσκι του κήπου.
Με μερικά απρόοπτα στην πορεία...το σχέδιο εκτελείται όπως είχε προγραμματιστεί.
Στη συνέχεια ο Αντουάν ανακαλύπτει ότι ο Τζο είχε ήδη σκοτωθεί από κάποιον άλλο κι ότι το πτώμα που είναι θαμένο κάτω από το κιόσκι του, δεν είναι του Τζο.
Αν ο Αντουάν δεν σκότωσε τον Τζο, τότε ποιόν σκότωσε; ...





























ΤΕΧΝΙΚΑ ΧΑΡΑΚΤΗΡΙΣΤΙΚΑ
General
Complete name                            : Jo.1971.DVDRip.x264.mkv
Format                                   : Matroska
Format version                           : Version 2
File size                                : 1.14 GiB
Duration                                 : 1h 22mn
Overall bit rate                         : 1 997 Kbps
Writing application                      : HandBrake 0.9.4

Video
ID                                       : 1
Format                                   : AVC
Format/Info                              : Advanced Video Codec
Format profile                           : High@L3.0
Format settings, CABAC                   : Yes
Format settings, ReFrames                : 3 frames
Codec ID                                 : V_MPEG4/ISO/AVC
Duration                                 : 1h 22mn
Bit rate                                 : 1 800 Kbps
Width                                    : 720 pixels
Height                                   : 432 pixels
Display aspect ratio                     : 1.667
Frame rate mode                          : Constant
Frame rate                               : 25.000 fps
Color space                              : YUV
Chroma subsampling                       : 4:2:0
Bit depth                                : 8 bits
Scan type                                : Progressive
Bits/(Pixel*Frame)                       : 0.231
Stream size                              : 1.01 GiB (88%)

Audio
ID                                       : 2
Format                                   : AC-3
Format/Info                              : Audio Coding 3
Mode extension                           : CM (complete main)
Format settings, Endianness              : Big
Codec ID                                 : A_AC3
Duration                                 : 1h 22mn
Bit rate mode                            : Constant
Bit rate                                 : 192 Kbps
Channel(s)                               : 2 channels
Channel positions                        : Front: L R
Sampling rate                            : 48.0 KHz
Bit depth                                : 16 bits
Compression mode                         : Lossy
Stream size                              : 113 MiB (10%)
Language                                 : French
Default                                  : Yes
Forced                                   : No


--------------------------------
Κατεβάστε εδώ:
gianajkhs1971.rar

Κωδικός αποσυμπίεσης των αρχείων rar:
thelwseires
--------------------------------
 

Κατηγορία: ΑΛΛΑ ΚΑΝΑΛΙΑ (ΔΙΑΦΟΡΑ) |
Only registered users can add comments.
[ Registration | Login ]

Σύνδεση / Εγγραφή

Login:
Password:

Φιλικές Σελίδες

Αναζήτηση Σελίδας

Αναζήτηση Μέσω Google

EZ Archive